<?xml version="1.0" standalone="no"?>
<!DOCTYPE svg PUBLIC "-//W3C//DTD SVG 1.1//EN" "http://www.w3.org/Graphics/SVG/1.1/DTD/svg11.dtd" >
<svg>
<metadata>
Created by FontForge 20120731 at Sat Jun 29 13:13:15 2019
 By www
(c) 2006 Microsoft Corporation. All Rights Reserved.
</metadata>
<defs>
<font id="Calibri-Bold" horiz-adv-x="1099" >
  <font-face 
    font-family="Calibri"
    font-weight="700"
    font-stretch="normal"
    units-per-em="2048"
    panose-1="2 15 7 2 3 4 4 3 2 4"
    ascent="1536"
    descent="-512"
    x-height="960"
    cap-height="1294"
    bbox="-906.143 -381 2538 1950"
    underline-thickness="186"
    underline-position="-86"
    unicode-range="U+0020-FB04"
  />
<missing-glyph horiz-adv-x="1038" 
d="M987 1294v-1294h-945v1294h945zM879 101v1092h-732v-1092h732zM780 845q0 -57 -16.5 -101t-46 -75t-71 -49t-90.5 -24l-5 -121q-1 -13 -22.5 -18.5t-58.5 -5.5q-23 0 -38.5 1t-25 3.5t-13.5 7t-4 12.5l-8 157q-3 40 12.5 55t45.5 15h13q37 0 62.5 10.5t41.5 28.5
t23.5 42.5t7.5 52.5q0 61 -37.5 98.5t-114.5 37.5q-35 0 -62 -6.5t-47 -14t-33 -14t-18 -6.5q-4 0 -8 2.5t-7 9.5t-4.5 20.5t-1.5 36.5q0 26 2.5 40t10.5 21q7 8 26.5 16.5t46.5 15.5t60 12t68 5q85 0 144.5 -21t96.5 -57t54 -84.5t17 -102.5zM574 284q0 -26 -5 -44.5
t-17 -30t-31.5 -16.5t-47.5 -5q-29 0 -48.5 5t-31.5 16.5t-17 30t-5 44.5q0 28 5 46.5t17 30.5t31.5 17t48.5 5q28 0 47.5 -5t31.5 -17t17 -30.5t5 -46.5zM0 -397z" />
    <glyph glyph-name="f_b.liga" unicode="fb" horiz-adv-x="1730" 
d="M1655 492q0 -119 -25.5 -214t-75 -162t-121 -103t-162.5 -36q-45 0 -83.5 8.5t-74.5 27.5t-70 48t-70 70v-97q0 -11 -6 -18.5t-18.5 -12.5t-33.5 -7t-51 -2q-31 0 -51.5 2t-33 7t-17.5 12.5t-5 18.5v1158q-4 -6 -10 -9t-13 -3q-10 0 -28.5 4t-39 7.5t-42.5 5t-44 1.5
q-45 0 -75 -9t-47.5 -27.5t-24.5 -48.5t-7 -71v-82h148q10 0 17.5 -5t12.5 -16.5t7.5 -31.5t2.5 -49q0 -55 -10 -78.5t-29 -23.5h-149v-722q0 -10 -6 -17.5t-20.5 -12.5t-39 -7.5t-60.5 -2.5t-60.5 2.5t-39 7.5t-20 12.5t-5.5 17.5v722h-112q-19 0 -28.5 23.5t-9.5 78.5
q0 29 2.5 49t7 31.5t12 16.5t17.5 5h111v77q0 90 20 158.5t63.5 114t110 68t160.5 22.5q27 0 58 -2t59 -5.5t49.5 -8t33.5 -9t19 -10.5t10 -15q1 9 5.5 16t17 13t37 9.5t65.5 3.5q36 0 60.5 -3t38.5 -8.5t20 -13.5t6 -18v-493q36 34 69.5 58t68 39.5t70.5 22.5t76 7
q98 0 167 -39.5t112.5 -106.5t63.5 -156.5t20 -188.5zM1394 474q0 57 -8.5 110t-29 94t-54.5 65.5t-84 24.5q-25 0 -49.5 -7t-49.5 -24t-52.5 -44t-58.5 -67v-296q54 -68 102.5 -103.5t101.5 -35.5q49 0 83.5 25t56.5 65t32 91t10 102z" />
    <glyph glyph-name="f_f_b.liga" unicode="ffb" horiz-adv-x="2313" 
d="M1976 474q0 57 -8.5 110t-29 94t-54 65.5t-84.5 24.5q-25 0 -49 -7t-49.5 -24t-52.5 -44t-57 -67v-296q52 -68 101 -103.5t102 -35.5q48 0 82.5 25t56.5 65t32 91t10 102zM757 960v79q0 91 20.5 159t64 113.5t110 68t160.5 22.5q27 0 58 -2t58.5 -5.5t49.5 -8t34 -8.5
t18.5 -10.5t10.5 -17.5q1 9 5 16t17.5 13t38 9.5t64.5 3.5q37 0 61 -3t38.5 -8.5t20.5 -13.5t6 -18v-493q34 34 68 58t68 39.5t70 22.5t76 7q98 0 167.5 -39.5t113 -106.5t63.5 -156.5t20 -188.5q0 -119 -26 -214t-75 -162t-120.5 -103t-162.5 -36q-45 0 -84 8.5t-74.5 27.5
t-70 48t-70.5 70v-98q0 -11 -5.5 -18.5t-18 -12t-33.5 -6.5t-52 -2q-30 0 -50.5 2t-33 6.5t-17.5 12t-5 18.5v1162q-4 -6 -10 -9.5t-13 -3.5q-10 0 -29 4t-39 7.5t-42 5t-44 1.5q-45 0 -75 -8.5t-47.5 -27.5t-25 -48.5t-7.5 -70.5v-85h149q10 0 17 -5t12.5 -16.5t8 -31.5
t2.5 -49q0 -55 -10.5 -78.5t-28.5 -23.5h-150v-722q0 -10 -6 -17.5t-20 -12.5t-38.5 -7.5t-60.5 -2.5q-37 0 -61.5 2.5t-38.5 7.5t-20 12.5t-6 17.5v722h-331v-722q0 -10 -6 -17.5t-20 -12.5t-38.5 -7.5t-61.5 -2.5q-36 0 -60.5 2.5t-39 7.5t-20 12.5t-5.5 17.5v722h-112
q-19 0 -28.5 23.5t-9.5 78.5q0 29 2.5 49t7 31.5t12 16.5t17.5 5h111v66q0 90 18.5 158t57 113.5t97 68.5t138.5 23q44 0 79 -7.5t60 -16.5q12 -4 19 -10.5t11.5 -19t6.5 -32t2 -48.5q0 -49 -6.5 -69t-21.5 -20q-7 0 -16 3l-21 7t-28.5 7.5t-36.5 3.5q-58 0 -83 -36.5
t-25 -119.5v-71h331z" />
    <glyph glyph-name="uniFB00" unicode="ff" horiz-adv-x="1230" 
d="M1247 1268q0 -48 -6.5 -68t-21.5 -20q-7 0 -15.5 3t-21 7t-28.5 7t-37 3q-58 0 -83.5 -36t-25.5 -119v-85h163q9 0 16.5 -5t13 -16.5t8 -31.5t2.5 -49q0 -55 -10.5 -78.5t-28.5 -23.5h-164v-722q0 -10 -6 -17.5t-20 -12.5t-38.5 -7.5t-60.5 -2.5q-37 0 -61.5 2.5
t-38.5 7.5t-20 12.5t-6 17.5v722h-331v-722q0 -10 -6 -17.5t-20.5 -12.5t-39 -7.5t-60.5 -2.5t-60.5 2.5t-39 7.5t-20 12.5t-5.5 17.5v722h-112q-19 0 -28.5 23.5t-9.5 78.5q0 29 2.5 49t7 31.5t12 16.5t17.5 5h111v66q0 90 18.5 158t57 113.5t97 68.5t138.5 23
q44 0 79 -7.5t60 -16.5q12 -4 19 -10.5t11.5 -19t6.5 -32t2 -48.5q0 -49 -6.5 -69t-21.5 -20q-7 0 -16 3l-21 7t-28.5 7.5t-36.5 3.5q-58 0 -83 -36.5t-25 -119.5v-71h331v79q0 91 19 159t57.5 113.5t97 68t139.5 22.5q43 0 78.5 -7t60.5 -16q11 -4 18.5 -11t11.5 -19t6 -32
t2 -49z" />
    <glyph glyph-name="f_h.liga" unicode="fh" horiz-adv-x="1730" 
d="M1609 34q0 -10 -6 -17.5t-20 -12.5t-38.5 -7.5t-60.5 -2.5q-37 0 -61 2.5t-39 7.5t-20.5 12.5t-5.5 17.5v509q0 65 -9 102t-27.5 63.5t-46.5 41t-66 14.5q-49 0 -97.5 -35t-103.5 -102v-593q0 -10 -6 -17.5t-20 -12.5t-38.5 -7.5t-60.5 -2.5q-37 0 -61.5 2.5t-38.5 7.5
t-20 12.5t-6 17.5v1158q-4 -6 -10 -9t-13 -3q-10 0 -28.5 4t-39 7.5t-42 5t-44.5 1.5q-45 0 -75 -9t-47.5 -27.5t-24.5 -48.5t-7 -71v-82h148q10 0 17.5 -5t12.5 -16.5t7.5 -31.5t2.5 -49q0 -55 -10 -78.5t-29 -23.5h-149v-722q0 -10 -6 -17.5t-20 -12.5t-38.5 -7.5
t-61.5 -2.5q-36 0 -60.5 2.5t-39 7.5t-20 12.5t-5.5 17.5v722h-112q-19 0 -28.5 23.5t-9.5 78.5q0 29 2.5 49t7 31.5t12 16.5t17.5 5h111v77q0 90 20 158.5t63.5 114t110 68t160.5 22.5q27 0 58 -2t59 -5.5t49.5 -8t33.5 -9t19 -10.5t10 -15q1 9 5.5 16t17 13t37 9.5
t65.5 3.5q36 0 60.5 -3t38.5 -8.5t20 -13.5t6 -18v-493q66 64 133.5 95.5t140.5 31.5q92 0 154 -30t100.5 -82t55.5 -121.5t17 -168.5v-547z" />
    <glyph glyph-name="f_f_h.liga" unicode="ffh" horiz-adv-x="2313" 
d="M757 1039q0 91 20.5 159t64 113.5t110 68t160.5 22.5q27 0 58 -2t58.5 -5.5t49.5 -8t34 -8.5t18.5 -10.5t10.5 -17.5q1 9 5 16t17.5 13t38 9.5t64.5 3.5q37 0 61 -3t38.5 -8.5t20.5 -13.5t6 -18v-493q65 64 132.5 95.5t140.5 31.5q91 0 153.5 -30t101 -82t55.5 -121.5
t17 -168.5v-547q0 -10 -6 -17.5t-20.5 -12.5t-38.5 -7.5t-60 -2.5q-37 0 -61.5 2.5t-38.5 7.5t-20 12.5t-6 17.5v509q0 65 -9 102t-27.5 63.5t-47 41t-66.5 14.5q-48 0 -97 -35t-102 -102v-593q0 -10 -6 -17.5t-20.5 -12.5t-38.5 -7.5t-61 -2.5t-61 2.5t-38.5 7.5
t-20.5 12.5t-6 17.5v1161q-4 -6 -10 -9.5t-13 -3.5q-9 0 -26.5 4t-39.5 7.5t-44 5t-44 1.5q-45 0 -75 -8.5t-47.5 -27.5t-25 -48.5t-7.5 -70.5v-85h149q10 0 17 -5t12.5 -16.5t8 -31.5t2.5 -49q0 -55 -10.5 -78.5t-28.5 -23.5h-150v-722q0 -10 -6 -17.5t-20 -12.5
t-38.5 -7.5t-60.5 -2.5q-37 0 -61.5 2.5t-38.5 7.5t-20 12.5t-6 17.5v722h-331v-722q0 -10 -6 -17.5t-20 -12.5t-39 -7.5t-61 -2.5t-60.5 2.5t-39 7.5t-20 12.5t-5.5 17.5v722h-112q-19 0 -28.5 23.5t-9.5 78.5q0 29 2.5 49t7 31.5t12 16.5t17.5 5h111v66q0 90 18.5 158
t57 113.5t97 68.5t138.5 23q44 0 79 -7.5t60 -16.5q12 -4 19 -10.5t11.5 -19t6.5 -32t2 -48.5q0 -49 -6.5 -69t-21.5 -20q-7 0 -16 3l-21 7t-28.5 7.5t-36.5 3.5q-58 0 -83 -36.5t-25 -119.5v-71h331v79z" />
    <glyph glyph-name="uniFB01" unicode="fi" horiz-adv-x="1135" 
d="M1027 1226q0 -37 -6.5 -62.5t-22.5 -41t-43.5 -22t-68.5 -6.5t-69 6.5t-44.5 22t-23 41t-6.5 62.5q0 36 6.5 61t23 41t44.5 23t69 7t68.5 -7t43.5 -23t22.5 -41t6.5 -61zM1008 34q0 -10 -6 -17.5t-20 -12.5t-38.5 -7.5t-60.5 -2.5q-37 0 -61.5 2.5t-38.5 7.5t-20 12.5
t-6 17.5v722h-331v-722q0 -10 -6 -17.5t-20 -12.5t-38.5 -7.5t-61.5 -2.5q-36 0 -60.5 2.5t-39 7.5t-20 12.5t-5.5 17.5v722h-112q-19 0 -28.5 23.5t-9.5 78.5q0 29 2.5 49t7 31.5t12 16.5t17.5 5h111v79q0 91 18.5 159t56.5 113.5t96 68t137 22.5q22 0 44.5 -2t42.5 -6
t35 -9t20.5 -10.5t9 -12.5t6 -18t3.5 -28.5t1 -43.5q0 -48 -5.5 -67.5t-21.5 -19.5q-6 0 -13.5 2t-18 5t-24.5 5.5t-35 2.5q-53 0 -77 -36t-24 -119v-85h506q38 0 57 -16.5t19 -52.5v-857z" />
    <glyph glyph-name="f_igrave.liga" unicode="f&#xec;" horiz-adv-x="1135" 
d="M1008 34q0 -10 -6 -17.5t-20 -12.5t-38.5 -7.5t-60.5 -2.5q-37 0 -61.5 2.5t-38.5 7.5t-20 12.5t-6 17.5v722h-331v-722q0 -10 -6 -17.5t-20 -12.5t-39 -7.5t-61 -2.5t-60.5 2.5t-39 7.5t-20 12.5t-5.5 17.5v722h-112q-19 0 -28.5 23.5t-9.5 78.5q0 29 2.5 49t7 31.5
t12 16.5t17.5 5h111v86q0 87 18.5 153t56 110.5t94.5 67.5t133 23q28 0 55.5 -4t45.5 -10.5t25.5 -13.5t11.5 -20t5.5 -32.5t1.5 -48.5q0 -48 -6 -67.5t-21 -19.5q-6 0 -12.5 2t-15.5 4.5t-21.5 5t-28.5 2.5q-46 0 -68.5 -34.5t-22.5 -111.5v-92h506q38 0 57 -16.5t19 -52.5
v-857zM1001 1131q5 -14 5 -24t-9.5 -16.5t-30.5 -9.5t-56 -3q-29 0 -47 2t-29.5 6t-18 10.5t-12.5 16.5l-141 232q-7 11 -5.5 21t14.5 17.5t40.5 12t73.5 4.5q34 0 55.5 -2t35 -6.5t20.5 -12.5t11 -20z" />
    <glyph glyph-name="f_iacute.liga" unicode="f&#xed;" horiz-adv-x="1135" 
d="M1008 34q0 -10 -6 -17.5t-20 -12.5t-38.5 -7.5t-60.5 -2.5q-37 0 -61.5 2.5t-38.5 7.5t-20 12.5t-6 17.5v722h-331v-722q0 -10 -6 -17.5t-20 -12.5t-38.5 -7.5t-61.5 -2.5q-36 0 -60.5 2.5t-39 7.5t-20 12.5t-5.5 17.5v722h-112q-19 0 -28.5 23.5t-9.5 78.5q0 29 2.5 49
t7 31.5t12 16.5t17.5 5h111v77q0 90 18.5 158t57 113.5t97 68.5t137.5 23q40 0 75.5 -6.5t53.5 -14t25 -14t11 -19t5.5 -32t1.5 -48.5q0 -49 -5.5 -68.5t-21.5 -19.5q-6 0 -15 3t-21 6.5t-27.5 7t-35.5 3.5q-56 0 -80.5 -36.5t-24.5 -119.5v-82h506q38 0 57 -16.5t19 -52.5
v-857zM913 1361q7 11 17 19t25 12.5t38 6.5t56 2q46 0 72.5 -4t38 -11.5t10.5 -17.5t-10 -21l-194 -232q-8 -10 -16 -16.5t-20.5 -10.5t-31.5 -6t-48 -2q-35 0 -55.5 3t-28.5 9.5t-6.5 16.5t10.5 23zM657 957z" />
    <glyph glyph-name="f_icircumflex.liga" unicode="f&#xee;" horiz-adv-x="1135" 
d="M1008 34q0 -10 -6 -17.5t-20 -12.5t-38.5 -7.5t-60.5 -2.5q-37 0 -61.5 2.5t-38.5 7.5t-20 12.5t-6 17.5v722h-331v-722q0 -10 -6 -17.5t-20 -12.5t-38.5 -7.5t-61.5 -2.5q-36 0 -60.5 2.5t-39 7.5t-20 12.5t-5.5 17.5v722h-112q-19 0 -28.5 23.5t-9.5 78.5q0 29 2.5 49
t7 31.5t12 16.5t17.5 5h111v86q0 87 18.5 153t56 110.5t94.5 67.5t133 23q28 0 56 -4.5t45 -10.5t24 -12.5t11 -18t5.5 -30t1.5 -47.5q0 -48 -6 -68t-21 -20q-6 0 -12.5 2t-15.5 5t-21.5 5t-28.5 2q-46 0 -67.5 -34.5t-21.5 -111.5v-97h506q38 0 57 -16.5t19 -52.5v-857z
M812 1112q-6 -12 -12.5 -19t-18 -10.5t-30.5 -4.5t-48 -1q-33 0 -52 3t-25 11t-1.5 23t17.5 38l132 214q5 10 14 16t23.5 9.5t36.5 5t53 1.5q32 0 53.5 -2t36 -6t23.5 -10t16 -14l138 -223q12 -20 16 -33t-3.5 -20.5t-27.5 -10t-55 -2.5q-31 0 -50.5 1t-31 4.5t-17 10.5
t-11.5 19l-88 149z" />
    <glyph glyph-name="f_itilde.liga" unicode="f&#x129;" horiz-adv-x="1153" 
d="M1027 34q0 -10 -6 -17.5t-20 -12.5t-38.5 -7.5t-61.5 -2.5q-36 0 -60.5 2.5t-38.5 7.5t-20 12.5t-6 17.5v722h-350v-722q0 -10 -6 -17.5t-20 -12.5t-39 -7.5t-61 -2.5t-60.5 2.5t-39 7.5t-20 12.5t-5.5 17.5v722h-112q-19 0 -28.5 23.5t-9.5 78.5q0 29 2.5 49t7 31.5
t12 16.5t17.5 5h111v102q0 82 18 145.5t54.5 106t91.5 64.5t128 22q15 0 30 -1t29 -3t26 -5.5t20.5 -7t14 -9t8.5 -16.5t4.5 -29.5t1.5 -47.5q0 -49 -5 -73t-18 -24q-5 0 -10.5 1.5t-13.5 4t-18.5 4t-26.5 1.5q-43 0 -63 -33t-20 -110v-92h525q38 0 57 -16.5t19 -52.5v-857z
M1201 1308q0 -61 -13 -107t-37.5 -78t-60 -48.5t-79.5 -16.5q-48 0 -81.5 17.5t-57.5 39t-43 39t-39 17.5q-25 0 -36 -23.5t-11 -60.5q0 -18 -15.5 -23.5t-57.5 -5.5q-35 0 -52.5 7.5t-17.5 33.5q0 117 49 183.5t141 66.5q31 0 55.5 -8.5t45 -21t37 -27t31 -27.5t27 -21.5
t24.5 -8.5q24 0 35.5 22t11.5 63q0 17 16.5 23t54.5 6t55.5 -8t17.5 -33z" />
    <glyph glyph-name="f_idieresis.liga" unicode="f&#xef;" horiz-adv-x="1153" 
d="M1027 34q0 -10 -6 -17.5t-20 -12.5t-38.5 -7.5t-60.5 -2.5q-37 0 -61.5 2.5t-38.5 7.5t-20 12.5t-6 17.5v722h-350v-722q0 -10 -6 -17.5t-20 -12.5t-39 -7.5t-61 -2.5t-60.5 2.5t-39 7.5t-20 12.5t-5.5 17.5v722h-112q-19 0 -28.5 23.5t-9.5 78.5q0 29 2.5 49t7 31.5
t12 16.5t17.5 5h111v102q0 82 18 145.5t54.5 106t91.5 64.5t128 22q15 0 30 -1t29 -3t26 -5.5t20.5 -7t14 -9t8.5 -16.5t4.5 -29.5t1.5 -47.5q0 -49 -5 -73t-18 -24q-5 0 -10.5 1.5t-13.5 4t-18.5 4t-26.5 1.5q-43 0 -63 -33t-20 -110v-92h525q38 0 57 -16.5t19 -52.5v-857z
M642 1226q0 37 6 61t20 37.5t36.5 18.5t54.5 5t54 -5t36 -18.5t20 -37.5t6 -61t-6 -61.5t-20 -38.5t-36 -19.5t-54 -5.5t-54.5 5.5t-36.5 19.5t-20 38.5t-6 61.5zM950 1226q0 37 6 61t20 37.5t36.5 18.5t54.5 5t54.5 -5t36 -18.5t19.5 -37.5t6 -61t-6 -61.5t-19.5 -38.5
t-36 -19.5t-54.5 -5.5t-54.5 5.5t-36.5 19.5t-20 38.5t-6 61.5z" />
    <glyph glyph-name="f_imacron.liga" unicode="f&#x12b;" horiz-adv-x="1153" 
d="M1027 34q0 -10 -6 -17.5t-20 -12.5t-38.5 -7.5t-61.5 -2.5q-36 0 -60.5 2.5t-38.5 7.5t-20 12.5t-6 17.5v722h-350v-722q0 -10 -6 -17.5t-20 -12.5t-39 -7.5t-61 -2.5t-60.5 2.5t-39 7.5t-20 12.5t-5.5 17.5v722h-112q-19 0 -28.5 23.5t-9.5 78.5q0 29 2.5 49t7 31.5
t12 16.5t17.5 5h111v102q0 82 18 145.5t54.5 106t91.5 64.5t128 22q15 0 30 -1t29 -3t26 -5.5t20.5 -7t14 -9t8.5 -16.5t4.5 -29.5t1.5 -47.5q0 -49 -5 -73t-18 -24q-5 0 -10.5 1.5t-13.5 4t-18.5 4t-26.5 1.5q-43 0 -63.5 -33t-19.5 -110v-92h525q38 0 57 -16.5t19 -52.5
v-857zM1128 1323q11 0 19 -4.5t13 -15.5t7 -28.5t2 -43.5t-2 -43t-7 -28t-13 -15.5t-19 -4.5h-450q-12 0 -20.5 4.5t-13.5 15.5t-7 28t-2 43q0 25 2 43t7 28.5t13.5 15.5t20.5 5h450z" />
    <glyph glyph-name="f_ibreve.liga" unicode="f&#x12d;" horiz-adv-x="1153" 
d="M1027 34q0 -10 -6 -17.5t-20 -12.5t-38.5 -7.5t-60.5 -2.5q-37 0 -61.5 2.5t-38.5 7.5t-20 12.5t-6 17.5v722h-350v-722q0 -10 -6 -17.5t-20 -12.5t-38.5 -7.5t-61.5 -2.5q-36 0 -60.5 2.5t-39 7.5t-20 12.5t-5.5 17.5v722h-112q-19 0 -28.5 23.5t-9.5 78.5q0 29 2.5 49
t7 31.5t12 16.5t17.5 5h111v102q0 82 18 145.5t54.5 106t91.5 64.5t128 22q15 0 30 -1t29 -3t26 -5.5t20.5 -7t14 -9t8.5 -16.5t4.5 -29.5t1.5 -47.5q0 -49 -5 -73t-18 -24q-5 0 -10.5 1.5t-13.5 4t-18.5 4t-26.5 1.5q-43 0 -63 -33t-20 -110v-92h525q38 0 57 -16.5
t19 -52.5v-857zM1011 1346q2 20 20.5 30t60.5 10q49 0 65.5 -7.5t16.5 -28.5q0 -67 -15.5 -118.5t-48.5 -87t-84 -54.5t-122 -19q-75 0 -127 18.5t-83.5 54.5t-46 87t-14.5 117q0 20 16 29t61 9q24 0 40.5 -2t26.5 -7t14 -12.5t5 -18.5q2 -27 8.5 -48.5t19 -37t32 -23.5
t48.5 -8q25 0 44 7t32.5 21.5t21 36.5t9.5 52z" />
    <glyph glyph-name="f_iogonek.liga" unicode="f&#x12f;" horiz-adv-x="1135" 
d="M1027 1226q0 -37 -6.5 -62.5t-22.5 -41t-43.5 -22t-68.5 -6.5t-69 6.5t-44.5 22t-23 41t-6.5 62.5q0 36 6.5 61t23 41t44.5 23t69 7t68.5 -7t43.5 -23t22.5 -41t6.5 -61zM1008 35q0 -18 -7.5 -33.5t-18.5 -26.5l-58 -59q-13 -12 -21 -22.5t-13 -19t-7 -16.5t-2 -17
q0 -21 15 -31t47 -10h83q10 0 17 -2.5t11 -9t6 -18.5t2 -30q0 -21 -2 -35t-6.5 -23.5t-12 -14.5t-18.5 -8q-35 -12 -75.5 -18t-94.5 -6q-49 0 -88.5 10t-67.5 30.5t-43 51t-15 71.5q0 21 3.5 40.5t12 38.5t23 38.5t36.5 41.5l43 43v756h-331v-722q0 -10 -6 -17.5t-20 -12.5
t-38.5 -7.5t-61.5 -2.5q-36 0 -60.5 2.5t-39 7.5t-20 12.5t-5.5 17.5v722h-112q-19 0 -28.5 23.5t-9.5 78.5q0 29 2.5 49t7 31.5t12 16.5t17.5 5h111v79q0 91 18.5 159t56.5 113.5t96 68t137 22.5q22 0 44.5 -2t42.5 -6t35 -9t20.5 -10.5t9 -12.5t6 -18t3.5 -28.5t1 -43.5
q0 -48 -5.5 -67.5t-21.5 -19.5q-6 0 -13.5 2t-18 5t-24.5 5.5t-35 2.5q-53 0 -77.5 -36t-23.5 -119v-85h506q38 0 57 -16.5t19 -52.5v-856z" />
    <glyph glyph-name="f_dotlessi.liga" unicode="f&#x131;" horiz-adv-x="1135" 
d="M1008 34q0 -10 -6 -17.5t-20 -12.5t-38.5 -7.5t-60.5 -2.5q-37 0 -61.5 2.5t-38.5 7.5t-20 12.5t-6 17.5v722h-331v-722q0 -10 -6 -17.5t-20 -12.5t-38.5 -7.5t-61.5 -2.5q-36 0 -60.5 2.5t-39 7.5t-20 12.5t-5.5 17.5v722h-112q-19 0 -28.5 23.5t-9.5 78.5q0 29 2.5 49
t7 31.5t12 16.5t17.5 5h111v77q0 90 18.5 158t57 113.5t97 68.5t137.5 23q40 0 75.5 -6.5t53.5 -14t25 -14t11 -19t5.5 -32t1.5 -48.5q0 -49 -5.5 -68.5t-21.5 -19.5q-6 0 -15 3t-21 6.5t-27.5 7t-35.5 3.5q-56 0 -80.5 -36.5t-24.5 -119.5v-82h506q38 0 57 -16.5t19 -52.5
v-857z" />
    <glyph glyph-name="uniFB03" unicode="ffi" horiz-adv-x="1718" 
d="M1611 1226q0 -37 -6.5 -62.5t-23 -41t-44 -22t-69.5 -6.5q-41 0 -68.5 6.5t-44 22t-23.5 41t-7 62.5q0 36 7 61t23.5 41t44 23t68.5 7q42 0 69.5 -7t44 -23t23 -41t6.5 -61zM1592 34q0 -10 -6 -17.5t-20.5 -12.5t-38.5 -7.5t-61 -2.5t-61 2.5t-38.5 7.5t-20.5 12.5
t-6 17.5v722h-332v-722q0 -10 -6 -17.5t-20 -12.5t-38.5 -7.5t-60.5 -2.5q-37 0 -61.5 2.5t-38.5 7.5t-20 12.5t-6 17.5v722h-331v-722q0 -10 -6 -17.5t-20 -12.5t-39 -7.5t-61 -2.5t-60.5 2.5t-39 7.5t-20 12.5t-5.5 17.5v722h-112q-19 0 -28.5 23.5t-9.5 78.5q0 29 2.5 49
t7 31.5t12 16.5t17.5 5h111v66q0 90 18.5 158t57 113.5t97 68.5t138.5 23q44 0 78.5 -7t53.5 -14t26 -13.5t11.5 -19t6.5 -32t2 -48.5q0 -49 -6.5 -69t-21.5 -20q-7 0 -16 3t-21.5 7t-29 7.5t-36.5 3.5q-57 0 -82 -36.5t-25 -119.5v-71h331v79q0 91 19 159t57 113.5t96 68
t137 22.5q21 0 44.5 -2t43 -6t34.5 -9t20.5 -10.5t9 -12.5t6 -18t3.5 -28.5t1 -43.5q0 -48 -5.5 -67.5t-21.5 -19.5q-6 0 -13.5 2t-18 5t-25 5.5t-34.5 2.5q-54 0 -78 -36t-24 -119v-85h507q38 0 57.5 -16.5t19.5 -52.5v-857z" />
    <glyph glyph-name="f_f_igrave.liga" unicode="ff&#xec;" horiz-adv-x="1718" 
d="M1592 34q0 -10 -6 -17.5t-20.5 -12.5t-38.5 -7.5t-61 -2.5t-61 2.5t-38.5 7.5t-20.5 12.5t-6 17.5v722h-332v-722q0 -10 -6 -17.5t-20 -12.5t-38.5 -7.5t-60.5 -2.5q-37 0 -61.5 2.5t-38.5 7.5t-20 12.5t-6 17.5v722h-331v-722q0 -10 -6 -17.5t-20 -12.5t-39 -7.5
t-61 -2.5t-60.5 2.5t-39 7.5t-20 12.5t-5.5 17.5v722h-112q-19 0 -28.5 23.5t-9.5 78.5q0 29 2.5 49t7 31.5t12 16.5t17.5 5h111v66q0 90 18.5 158t57 113.5t97 68.5t138.5 23q44 0 79 -7t53.5 -14t25.5 -13.5t11.5 -19t6.5 -32t2 -48.5q0 -49 -6.5 -69t-21.5 -20
q-7 0 -16 3l-21 7t-28.5 7.5t-36.5 3.5q-58 0 -83 -36.5t-25 -119.5v-71h331v89q0 87 18.5 153t56.5 110.5t94.5 67t133.5 22.5q28 0 58 -4.5t45.5 -10t22.5 -12.5t11 -20t6 -32.5t2 -48.5q0 -48 -6 -67.5t-21 -19.5q-6 0 -12.5 2t-16 4.5t-21.5 4.5t-28 2q-46 0 -69 -34.5
t-23 -111.5v-94h507q38 0 57.5 -16.5t19.5 -52.5v-857zM1584 1131q5 -14 5 -24t-9.5 -16.5t-30.5 -9.5t-55 -3q-29 0 -48 2t-30 6t-17.5 10.5t-11.5 16.5l-142 232q-7 11 -6 21t14.5 17.5t41 12t73.5 4.5q33 0 55 -2t35.5 -6.5t20.5 -12.5t11 -20z" />
    <glyph glyph-name="f_f_iacute.liga" unicode="ff&#xed;" horiz-adv-x="1718" 
d="M1592 34q0 -10 -6 -17.5t-20.5 -12.5t-38.5 -7.5t-61 -2.5t-61 2.5t-38.5 7.5t-20.5 12.5t-6 17.5v722h-332v-722q0 -10 -6 -17.5t-20 -12.5t-38.5 -7.5t-60.5 -2.5q-37 0 -61.5 2.5t-38.5 7.5t-20 12.5t-6 17.5v722h-331v-722q0 -10 -6 -17.5t-20 -12.5t-38.5 -7.5
t-61.5 -2.5q-36 0 -60.5 2.5t-39 7.5t-20 12.5t-5.5 17.5v722h-112q-19 0 -28.5 23.5t-9.5 78.5q0 29 2.5 49t7 31.5t12 16.5t17.5 5h111v66q0 90 18.5 158t57 113.5t97 68.5t138.5 23q43 0 78.5 -7t54 -14t25.5 -13.5t11.5 -19t6.5 -32t2 -48.5q0 -49 -6.5 -69t-21.5 -20
q-7 0 -16 3l-21 7t-28.5 7.5t-36.5 3.5q-58 0 -83 -36.5t-25 -119.5v-71h331v79q0 91 19 159t57.5 113.5t97 68t138.5 22.5q42 0 77.5 -7t51.5 -13.5t23.5 -13.5t11.5 -19.5t5.5 -32t1.5 -48.5q0 -48 -5.5 -67.5t-21.5 -19.5q-6 0 -14.5 3t-21 6.5t-28 6.5t-35.5 3
q-56 0 -81 -36t-25 -119v-85h507q38 0 57.5 -16.5t19.5 -52.5v-857zM1496 1361q7 11 17 19t25 12.5t38 6.5t56 2q46 0 72.5 -4t38 -11.5t10.5 -17.5t-10 -21l-194 -232q-8 -10 -16 -16.5t-20.5 -10.5t-31.5 -6t-48 -2q-35 0 -55.5 3t-28.5 9.5t-6.5 16.5t10.5 23zM1240 957z
" />
    <glyph glyph-name="f_f_icircumflex.liga" unicode="ff&#xee;" horiz-adv-x="1718" 
d="M1592 34q0 -10 -6 -17.5t-20.5 -12.5t-38.5 -7.5t-61 -2.5t-61 2.5t-38.5 7.5t-20.5 12.5t-6 17.5v722h-332v-722q0 -10 -6 -17.5t-20 -12.5t-38.5 -7.5t-60.5 -2.5q-37 0 -61.5 2.5t-38.5 7.5t-20 12.5t-6 17.5v722h-331v-722q0 -10 -6 -17.5t-20 -12.5t-39 -7.5
t-61 -2.5t-60.5 2.5t-39 7.5t-20 12.5t-5.5 17.5v722h-112q-19 0 -28.5 23.5t-9.5 78.5q0 29 2.5 49t7 31.5t12 16.5t17.5 5h111v66q0 90 18.5 158t57 113.5t97 68.5t138.5 23q44 0 79 -7.5t53.5 -14t25.5 -13t11.5 -19t6.5 -32t2 -48.5q0 -49 -6.5 -69t-21.5 -20
q-7 0 -16 3l-21 7t-28.5 7.5t-36.5 3.5q-58 0 -83 -36.5t-25 -119.5v-71h331v89q0 87 18.5 153t56.5 110.5t94.5 67t133.5 22.5q28 0 58 -4.5t45 -10t22 -12t11 -18t5.5 -30.5t1.5 -48q0 -48 -5.5 -67.5t-21.5 -19.5q-6 0 -12.5 2t-16 4.5t-21.5 5t-28 2.5q-46 0 -68 -34.5
t-22 -111.5v-100h507q38 0 57.5 -16.5t19.5 -52.5v-857zM1395 1112q-6 -12 -12.5 -19t-18.5 -10.5t-30.5 -4.5t-47.5 -1q-34 0 -52 3t-24.5 11t-2 23t17.5 38l131 214q5 10 14 16t24 9.5t37 5t54 1.5q31 0 52.5 -2t36 -6t23.5 -10t15 -14l139 -223q11 -20 15 -33t-3 -20.5
t-26.5 -10t-54.5 -2.5q-33 0 -52 1t-30.5 4.5t-17 10.5t-11.5 19l-88 149z" />
    <glyph glyph-name="f_f_itilde.liga" unicode="ff&#x129;" horiz-adv-x="1736" 
d="M1610 34q0 -10 -6 -17.5t-20.5 -12.5t-38.5 -7.5t-61 -2.5t-61 2.5t-38 7.5t-20 12.5t-6 17.5v722h-351v-722q0 -10 -6 -17.5t-20 -12.5t-38.5 -7.5t-60.5 -2.5q-37 0 -61.5 2.5t-38.5 7.5t-20 12.5t-6 17.5v722h-331v-722q0 -10 -6 -17.5t-20 -12.5t-38.5 -7.5
t-61.5 -2.5q-36 0 -60.5 2.5t-39 7.5t-20 12.5t-5.5 17.5v722h-112q-19 0 -28.5 23.5t-9.5 78.5q0 29 2.5 49t7 31.5t12 16.5t17.5 5h111v66q0 90 18.5 158t57 113.5t97 68.5t138.5 23q44 0 79 -7.5t53.5 -14t25.5 -13t11.5 -19t6.5 -32t2 -48.5q0 -49 -6.5 -69t-21.5 -20
q-7 0 -16 3l-21 7t-28.5 7.5t-36.5 3.5q-58 0 -83 -36.5t-25 -119.5v-71h331v105q0 82 18 145t54.5 105.5t91.5 64.5t129 22q29 0 58 -4t42.5 -9.5t19 -11t8.5 -16.5t4 -30t1 -48q0 -48 -4.5 -72t-17.5 -24q-5 0 -10.5 1.5t-13.5 4t-18.5 4t-26.5 1.5q-43 0 -63.5 -33.5
t-20.5 -110.5v-94h525q38 0 57.5 -16.5t19.5 -52.5v-857zM1784 1308q0 -61 -13 -107t-37.5 -78t-60 -48.5t-79.5 -16.5q-49 0 -82 17.5t-57.5 39t-43 39t-38.5 17.5q-25 0 -35.5 -23.5t-10.5 -60.5q0 -18 -16 -23.5t-57 -5.5q-37 0 -54 7.5t-17 33.5q0 117 49 183.5
t141 66.5q31 0 55.5 -8.5t45 -21t37 -27t30.5 -27.5t26.5 -21.5t25.5 -8.5q23 0 35 22t12 63q0 17 16 23t55 6q38 0 55.5 -8t17.5 -33z" />
    <glyph glyph-name="f_f_idieresis.liga" unicode="ff&#xef;" horiz-adv-x="1736" 
d="M1610 34q0 -10 -6 -17.5t-20.5 -12.5t-38.5 -7.5t-61 -2.5t-61 2.5t-38 7.5t-20 12.5t-6 17.5v722h-351v-722q0 -10 -6 -17.5t-20 -12.5t-38.5 -7.5t-60.5 -2.5q-37 0 -61.5 2.5t-38.5 7.5t-20 12.5t-6 17.5v722h-331v-722q0 -10 -6 -17.5t-20 -12.5t-38.5 -7.5
t-61.5 -2.5q-36 0 -60.5 2.5t-39 7.5t-20 12.5t-5.5 17.5v722h-112q-19 0 -28.5 23.5t-9.5 78.5q0 29 2.5 49t7 31.5t12 16.5t17.5 5h111v66q0 90 18.5 158t57 113.5t97 68.5t138.5 23q44 0 79 -7.5t53.5 -14t25.5 -13t11.5 -19t6.5 -32t2 -48.5q0 -49 -6.5 -69t-21.5 -20
q-7 0 -16 3l-21 7t-28.5 7.5t-36.5 3.5q-58 0 -83 -36.5t-25 -119.5v-71h331v105q0 82 18 145t54.5 105.5t91.5 64.5t129 22q29 0 59 -4t42.5 -9.5t18 -11t8.5 -16.5t4 -30t1 -48q0 -48 -4.5 -72t-17.5 -24q-5 0 -10.5 1.5t-13.5 4t-18.5 4t-26.5 1.5q-43 0 -63.5 -34
t-20.5 -110v-94h525q38 0 57.5 -16.5t19.5 -52.5v-857zM1225 1226q0 37 6 61t20 37.5t36.5 18.5t54.5 5t54.5 -5t36 -18.5t19.5 -37.5t6 -61t-6 -61.5t-19.5 -38.5t-36 -19.5t-54.5 -5.5t-54.5 5.5t-36.5 19.5t-20 38.5t-6 61.5zM1533 1226q0 37 6.5 61t20 37.5t36 18.5
t54.5 5t54 -5t36 -18.5t20.5 -37.5t6.5 -61t-6.5 -61.5t-20.5 -38.5t-36 -19.5t-54 -5.5t-54.5 5.5t-36 19.5t-20 38.5t-6.5 61.5z" />
    <glyph glyph-name="f_f_imacron.liga" unicode="ff&#x12b;" horiz-adv-x="1736" 
d="M1610 34q0 -10 -6 -17.5t-20.5 -12.5t-38.5 -7.5t-61 -2.5t-61 2.5t-38 7.5t-20 12.5t-6 17.5v722h-351v-722q0 -10 -6 -17.5t-20 -12.5t-38.5 -7.5t-60.5 -2.5q-37 0 -61.5 2.5t-38.5 7.5t-20 12.5t-6 17.5v722h-331v-722q0 -10 -6 -17.5t-20 -12.5t-38.5 -7.5
t-61.5 -2.5q-36 0 -60.5 2.5t-39 7.5t-20 12.5t-5.5 17.5v722h-112q-19 0 -28.5 23.5t-9.5 78.5q0 29 2.5 49t7 31.5t12 16.5t17.5 5h111v66q0 90 18.5 158t57 113.5t97 68.5t138.5 23q44 0 79 -7.5t53.5 -14t25.5 -13t11.5 -19t6.5 -32t2 -48.5q0 -49 -6.5 -69t-21.5 -20
q-7 0 -16 3l-21 7t-28.5 7.5t-36.5 3.5q-58 0 -83 -36.5t-25 -119.5v-71h331v105q0 82 18 145t54.5 105.5t91.5 64.5t129 22q29 0 59 -4t42.5 -9.5t18 -11t8.5 -16.5t4 -30t1 -48q0 -48 -4.5 -72t-17.5 -24q-5 0 -10.5 1.5t-13.5 4t-18.5 4t-26.5 1.5q-43 0 -63.5 -33.5
t-20.5 -110.5v-94h525q38 0 57.5 -16.5t19.5 -52.5v-857zM1712 1323q11 0 18.5 -4.5t12.5 -15.5t7 -28.5t2 -43.5t-2 -43t-7 -28t-12.5 -15.5t-18.5 -4.5h-450q-13 0 -21.5 4.5t-13.5 15.5t-7 28t-2 43q0 50 9.5 71t34.5 21h450z" />
    <glyph glyph-name="f_f_ibreve.liga" unicode="ff&#x12d;" horiz-adv-x="1736" 
d="M1610 34q0 -10 -6 -17.5t-20.5 -12.5t-38.5 -7.5t-61 -2.5t-61 2.5t-38 7.5t-20 12.5t-6 17.5v722h-351v-722q0 -10 -6 -17.5t-20 -12.5t-38.5 -7.5t-60.5 -2.5q-37 0 -61.5 2.5t-38.5 7.5t-20 12.5t-6 17.5v722h-331v-722q0 -10 -6 -17.5t-20 -12.5t-38.5 -7.5
t-61.5 -2.5q-36 0 -60.5 2.5t-39 7.5t-20 12.5t-5.5 17.5v722h-112q-19 0 -28.5 23.5t-9.5 78.5q0 29 2.5 49t7 31.5t12 16.5t17.5 5h111v66q0 90 18.5 158t57 113.5t97 68.5t138.5 23q44 0 79 -7.5t53.5 -14t25.5 -13t11.5 -19t6.5 -32t2 -48.5q0 -49 -6.5 -69t-21.5 -20
q-7 0 -16 3l-21 7t-28.5 7.5t-36.5 3.5q-58 0 -83 -36.5t-25 -119.5v-71h331v105q0 82 18 145t54.5 105.5t91.5 64.5t129 22q29 0 59 -4t42.5 -9.5t18 -11t8.5 -16.5t4 -30t1 -48q0 -48 -4.5 -72t-17.5 -24q-5 0 -10.5 1.5t-13.5 4t-18.5 4t-26.5 1.5q-43 0 -63.5 -33.5
t-20.5 -110.5v-94h525q38 0 57.5 -16.5t19.5 -52.5v-857zM1594 1346q2 20 20.5 30t60.5 10q25 0 41 -2t24.5 -6t12 -11t3.5 -17q0 -67 -15.5 -118.5t-48.5 -87t-83.5 -54.5t-122.5 -19q-75 0 -126.5 18.5t-83.5 54.5t-46 87t-14 117q0 10 3.5 17.5t12.5 12t24 6.5t37 2
q49 0 67 -9t19 -31q2 -27 8.5 -48.5t19 -37t32 -23.5t47.5 -8q51 0 77.5 28.5t30.5 88.5z" />
    <glyph glyph-name="f_f_dotlessi.liga" unicode="ff&#x131;" horiz-adv-x="1718" 
d="M1592 34q0 -10 -6 -17.5t-20.5 -12.5t-38.5 -7.5t-61 -2.5t-61 2.5t-38.5 7.5t-20.5 12.5t-6 17.5v722h-332v-722q0 -10 -6 -17.5t-20 -12.5t-38.5 -7.5t-60.5 -2.5q-37 0 -61.5 2.5t-38.5 7.5t-20 12.5t-6 17.5v722h-331v-722q0 -10 -6 -17.5t-20 -12.5t-38.5 -7.5
t-61.5 -2.5q-36 0 -60.5 2.5t-39 7.5t-20 12.5t-5.5 17.5v722h-112q-19 0 -28.5 23.5t-9.5 78.5q0 29 2.5 49t7 31.5t12 16.5t17.5 5h111v66q0 90 18.5 158t57 113.5t97 68.5t138.5 23q43 0 78.5 -7t54 -14t25.5 -13.5t11.5 -19t6.5 -32t2 -48.5q0 -49 -6.5 -69t-21.5 -20
q-7 0 -16 3l-21 7t-28.5 7.5t-36.5 3.5q-58 0 -83 -36.5t-25 -119.5v-71h331v79q0 91 19 159t57.5 113.5t97 68t138.5 22.5q42 0 77.5 -7t51.5 -13.5t23.5 -13.5t11.5 -19.5t5.5 -32t1.5 -48.5q0 -48 -5.5 -67.5t-21.5 -19.5q-6 0 -14.5 3t-21 6.5t-28 6.5t-35.5 3
q-56 0 -81 -36t-25 -119v-85h507q38 0 57.5 -16.5t19.5 -52.5v-857z" />
    <glyph glyph-name="f_j.liga" unicode="fj" horiz-adv-x="1135" 
d="M1027 1226q0 -37 -6.5 -62.5t-22.5 -41t-43.5 -22t-68.5 -6.5t-69 6.5t-44.5 22t-23 41t-6.5 62.5q0 36 6.5 61t23 41t44.5 23t69 7t68.5 -7t43.5 -23t22.5 -41t6.5 -61zM1008 0q0 -99 -15 -162.5t-49.5 -108.5t-92 -69.5t-142.5 -24.5q-22 0 -44.5 2t-42 6.5t-34 10
t-20.5 11t-9.5 13t-6 18.5t-3.5 25.5t-1 37.5q0 28 2 47.5t5.5 31t9 16t12.5 4.5q8 0 19.5 -4t27 -7.5t39.5 -3.5q21 0 39 7.5t30 24.5t18.5 44.5t6.5 89.5v747h-331v-722q0 -10 -6 -17.5t-20 -12.5t-38.5 -7.5t-61.5 -2.5q-36 0 -60.5 2.5t-39 7.5t-20 12.5t-5.5 17.5v722
h-112q-19 0 -28.5 23.5t-9.5 78.5q0 29 2.5 49t7 31.5t12 16.5t17.5 5h111v79q0 91 18.5 159t56.5 113.5t96 68t137 22.5q22 0 44.5 -2t42.5 -6t35 -9t20.5 -10.5t9 -12.5t6 -18t3.5 -28.5t1 -43.5q0 -48 -5.5 -67.5t-21.5 -19.5q-6 0 -13.5 2t-18 5t-24.5 5.5t-35 2.5
q-53 0 -77 -36t-24 -119v-85h506q38 0 57 -16.5t19 -52.5v-891z" />
    <glyph glyph-name="f_jcircumflex.liga" unicode="f&#x135;" horiz-adv-x="1135" 
d="M1008 -20q0 -79 -15 -142.5t-49.5 -108.5t-92 -69.5t-142.5 -24.5q-22 0 -44.5 2t-42 6.5t-34 10t-20.5 11t-9.5 13t-6 18.5t-3.5 26t-1 37q0 28 2 47.5t5.5 31t9 16t12.5 4.5q8 0 22 -4.5t28.5 -7.5t35.5 -3t39 7.5t30 24.5t18.5 44.5t6.5 69.5v767h-331v-722
q0 -10 -6 -17.5t-20 -12.5t-39 -7.5t-61 -2.5t-60.5 2.5t-39 7.5t-20 12.5t-5.5 17.5v722h-112q-19 0 -28.5 23.5t-9.5 78.5q0 29 2.5 49t7 31.5t12 16.5t17.5 5h111v86q0 87 18.5 153t56 110.5t94.5 67.5t133 23q28 0 57 -4.5t45 -10.5t23 -12.5t11 -18t5.5 -30t1.5 -47.5
q0 -48 -6 -68t-21 -20q-6 0 -12.5 2t-15.5 5t-21.5 5t-28.5 2q-46 0 -67.5 -34.5t-21.5 -111.5v-97h506q38 0 57 -16.5t19 -52.5v-911zM812 1112q-6 -12 -12.5 -19t-18 -10.5t-30.5 -4.5t-48 -1q-33 0 -52 3t-25 11t-1.5 23t17.5 38l132 214q5 10 14 16t23.5 9.5t36.5 5
t53 1.5q32 0 53.5 -2t36 -6t23.5 -10t16 -14l138 -223q12 -20 16 -33t-3.5 -20.5t-27.5 -10t-55 -2.5q-31 0 -50.5 1t-31 4.5t-17 10.5t-11.5 19l-88 149z" />
    <glyph glyph-name="f_f_j.liga" unicode="ffj" horiz-adv-x="1718" 
d="M1611 1226q0 -37 -6.5 -62.5t-23 -41t-44 -22t-69.5 -6.5q-41 0 -68.5 6.5t-44 22t-23.5 41t-7 62.5q0 36 7 61t23.5 41t44 23t68.5 7q42 0 69.5 -7t44 -23t23 -41t6.5 -61zM757 1039q0 91 19 159t57 113.5t96 68t137 22.5q22 0 45.5 -2t43 -6t34 -9t20 -10.5t9 -12.5
t6 -18t3.5 -28.5t1 -43.5q0 -48 -6 -67.5t-21 -19.5q-7 0 -14 2l-17.5 5t-24.5 5.5t-34 2.5q-54 0 -78.5 -36t-24.5 -119v-85h507q38 0 57.5 -16.5t19.5 -52.5v-911q0 -79 -15.5 -142.5t-50.5 -108.5t-92.5 -69.5t-140.5 -24.5q-24 0 -46 2t-42 6.5t-34.5 10t-20.5 11
t-9.5 13t-5.5 18.5t-3 26t-1 37q0 28 1.5 47.5t5.5 31t9.5 16t12.5 4.5t14 -2.5t16.5 -5t22.5 -5t33 -2.5q21 0 38.5 7.5t30 24.5t19 44.5t6.5 69.5v767h-332v-722q0 -10 -6 -17.5t-20 -12.5t-38.5 -7.5t-60.5 -2.5q-37 0 -61.5 2.5t-38.5 7.5t-20 12.5t-6 17.5v722h-331
v-722q0 -10 -6 -17.5t-20 -12.5t-38.5 -7.5t-61.5 -2.5q-36 0 -60.5 2.5t-39 7t-20 12t-5.5 17.5v723h-112q-19 0 -28.5 23.5t-9.5 78.5q0 29 2.5 49t7 31.5t12 16.5t17.5 5h111v66q0 90 18.5 158t57 113.5t97 68.5t138.5 23q44 0 79 -7.5t53.5 -14t25.5 -13t11.5 -19
t6.5 -32t2 -48.5q0 -49 -6.5 -69t-21.5 -20q-7 0 -16 3l-21 7t-28.5 7.5t-36.5 3.5q-58 0 -83 -36.5t-25 -119.5v-71h331v79z" />
    <glyph glyph-name="f_k.liga" unicode="fk" horiz-adv-x="1613" 
d="M883 1392q36 0 60.5 -3t38.5 -8.5t20 -13.5t6 -18v-783l266 355q7 12 17 21t26 14t41 7.5t62 2.5q38 0 63.5 -2.5t41 -7.5t22 -12.5t6.5 -18.5q0 -15 -8.5 -32t-22.5 -36l-262 -296l303 -467q11 -20 17 -34.5t6 -26.5q0 -11 -5.5 -18t-20 -12t-39.5 -7t-65 -2t-66 2
t-42.5 6.5t-25.5 12.5t-16 21l-298 470v-472q0 -10 -6 -17.5t-20 -12.5t-38.5 -7.5t-60.5 -2.5q-37 0 -61.5 2.5t-38.5 7.5t-20 12.5t-6 17.5v1158q-3 -6 -8.5 -9t-13.5 -3q-11 0 -29 4t-40 7.5t-43.5 5t-42.5 1.5q-45 0 -75 -9t-47.5 -27.5t-24.5 -48.5t-7 -71v-82h148
q10 0 17.5 -5t12.5 -16.5t7.5 -31.5t2.5 -49q0 -55 -10 -78.5t-29 -23.5h-149v-722q0 -10 -6 -17.5t-20 -12.5t-39 -7.5t-61 -2.5t-60.5 2.5t-39 7.5t-20 12.5t-5.5 17.5v722h-112q-19 0 -28.5 23.5t-9.5 78.5q0 29 2.5 49t7 31.5t12 16.5t17.5 5h111v77q0 90 20 158.5
t63.5 114t110 68t160.5 22.5q27 0 57.5 -2t59.5 -5.5t50 -8t33 -9t19 -10.5t10 -15q1 9 5.5 16t17 13t37 9.5t65.5 3.5z" />
    <glyph glyph-name="f_f_k.liga" unicode="ffk" horiz-adv-x="2197" 
d="M2169 33q0 -11 -5.5 -18t-20 -12t-39.5 -7t-65 -2q-41 0 -66.5 2t-42 6.5t-26 12.5t-15.5 21l-297 470v-472q0 -10 -6 -17.5t-20.5 -12.5t-38.5 -7.5t-61 -2.5t-61 2.5t-38.5 7.5t-20.5 12.5t-6 17.5v1161q-3 -6 -8.5 -9.5t-13.5 -3.5q-10 0 -28.5 4t-40.5 7.5t-43.5 5
t-42.5 1.5q-45 0 -75 -8.5t-47.5 -27.5t-25 -48.5t-7.5 -70.5v-85h149q10 0 17 -5t12.5 -16.5t8 -31.5t2.5 -49q0 -55 -10.5 -78.5t-28.5 -23.5h-150v-722q0 -10 -6 -17.5t-20 -12.5t-38.5 -7.5t-60.5 -2.5q-37 0 -61.5 2.5t-38.5 7.5t-20 12.5t-6 17.5v722h-331v-722
q0 -10 -6 -17.5t-20 -12.5t-39 -7.5t-61 -2.5t-60.5 2.5t-39 7.5t-20 12.5t-5.5 17.5v722h-112q-19 0 -28.5 23.5t-9.5 78.5q0 29 2.5 49t7 31.5t12 16.5t17.5 5h111v66q0 90 18.5 158t57 113.5t97 68.5t138.5 23q44 0 79 -7.5t53.5 -14t25.5 -13t11.5 -19t6.5 -32t2 -48.5
q0 -49 -6.5 -69t-21.5 -20q-7 0 -16 3l-21 7t-28.5 7.5t-36.5 3.5q-58 0 -83 -36.5t-25 -119.5v-71h331v77q0 90 20.5 159t64 114.5t110 68.5t160.5 23q27 0 58 -2t59.5 -5.5t49.5 -8t33 -8.5t19 -10t10 -18q1 9 5.5 16t17.5 13t37.5 9.5t64.5 3.5q37 0 61 -3t38.5 -8.5
t20.5 -13.5t6 -18v-783l264 355q8 12 18 21t26 14t41 7.5t63 2.5q37 0 62.5 -2.5t40.5 -7.5t21.5 -12.5t6.5 -18.5q0 -15 -7.5 -32t-22.5 -36l-262 -296l303 -467q12 -20 17.5 -34.5t5.5 -26.5z" />
    <glyph glyph-name="uniFB02" unicode="fl" horiz-adv-x="1135" 
d="M1008 34q0 -10 -6 -17.5t-20 -12.5t-38.5 -7.5t-60.5 -2.5q-37 0 -61.5 2.5t-38.5 7.5t-20 12.5t-6 17.5v1158q-3 -6 -8.5 -9t-13.5 -3q-11 0 -29 4t-40 7.5t-43.5 5t-42.5 1.5q-45 0 -75 -9t-47.5 -27.5t-24.5 -48.5t-7 -71v-82h148q10 0 17.5 -5t12.5 -16.5t7.5 -31.5
t2.5 -49q0 -55 -10 -78.5t-29 -23.5h-149v-722q0 -10 -6 -17.5t-20 -12.5t-38.5 -7.5t-61.5 -2.5q-36 0 -60.5 2.5t-39 7.5t-20 12.5t-5.5 17.5v722h-112q-19 0 -28.5 23.5t-9.5 78.5q0 29 2.5 49t7 31.5t12 16.5t17.5 5h111v77q0 90 20 158.5t63.5 114t110 68t160.5 22.5
q27 0 57.5 -2t59.5 -5.5t50 -8t33 -9t19 -10.5t10 -15q1 9 5.5 16t17 13t37 9.5t65.5 3.5q36 0 60.5 -3t38.5 -8.5t20 -13.5t6 -18v-1315z" />
    <glyph glyph-name="f_lacute.liga" unicode="f&#x13a;" horiz-adv-x="1135" 
d="M1008 34q0 -10 -6 -17.5t-20 -12.5t-38.5 -7.5t-60.5 -2.5q-37 0 -61.5 2.5t-38.5 7.5t-20 12.5t-6 17.5v1158q-3 -6 -8.5 -9t-13.5 -3q-11 0 -29 4t-40 7.5t-43.5 5t-42.5 1.5q-45 0 -75 -9t-47.5 -27.5t-24.5 -48.5t-7 -71v-82h148q10 0 17.5 -5t12.5 -16.5t7.5 -31.5
t2.5 -49q0 -55 -10 -78.5t-29 -23.5h-149v-722q0 -10 -6 -17.5t-20 -12.5t-38.5 -7.5t-61.5 -2.5q-36 0 -60.5 2.5t-39 7.5t-20 12.5t-5.5 17.5v722h-112q-19 0 -28.5 23.5t-9.5 78.5q0 29 2.5 49t7 31.5t12 16.5t17.5 5h111v77q0 90 20 158.5t63.5 114t110 68t160.5 22.5
q27 0 57.5 -2t59.5 -5.5t50 -8t33 -9t19 -10.5t10 -15q1 9 5.5 16t17 13t37 9.5t65.5 3.5q36 0 60.5 -3t38.5 -8.5t20 -13.5t6 -18v-1315zM978 1712q13 15 25.5 24t30 14t42.5 6.5t62 1.5q46 0 71.5 -6t35 -15.5t4.5 -21.5t-19 -25l-222 -200q-10 -9 -20.5 -15.5t-25.5 -11
t-36 -6.5t-52 -2q-34 0 -54.5 3t-29 9.5t-6.5 16.5t14 24zM681 1363z" />
    <glyph glyph-name="f_lcaron.liga" unicode="f&#x13e;" horiz-adv-x="1258" 
d="M1008 34q0 -10 -6 -17.5t-20 -12.5t-38.5 -7.5t-60.5 -2.5q-37 0 -61.5 2.5t-38.5 7.5t-20 12.5t-6 17.5v1158q-3 -6 -8.5 -9t-13.5 -3q-11 0 -29 4t-40 7.5t-43.5 5t-42.5 1.5q-45 0 -75 -9t-47.5 -27.5t-24.5 -48.5t-7 -71v-82h148q10 0 17.5 -5t12.5 -16.5t7.5 -31.5
t2.5 -49q0 -55 -10 -78.5t-29 -23.5h-149v-722q0 -10 -6 -17.5t-20 -12.5t-38.5 -7.5t-61.5 -2.5q-36 0 -60.5 2.5t-39 7.5t-20 12.5t-5.5 17.5v722h-112q-19 0 -28.5 23.5t-9.5 78.5q0 29 2.5 49t7 31.5t12 16.5t17.5 5h111v77q0 90 20 158.5t63.5 114t110 68t160.5 22.5
q27 0 57.5 -2t59.5 -5.5t50 -8t33 -9t19 -10.5t10 -15q1 9 5.5 16t17 13t37 9.5t65.5 3.5q36 0 60.5 -3t38.5 -8.5t20 -13.5t6 -18v-1315zM1141 1355q3 12 10.5 20.5t21.5 14.5t36 9t55 3q36 0 57.5 -3.5t31.5 -9.5t10.5 -15.5t-3.5 -21.5l-124 -314q-4 -11 -11 -17.5
t-20 -10t-32 -5t-48 -1.5q-23 0 -36.5 2.5t-20 7.5t-7.5 14t2 22zM958 988z" />
    <glyph glyph-name="f_lcommaaccent.liga" unicode="f&#x13c;" horiz-adv-x="1135" 
d="M1008 34q0 -10 -6 -17.5t-20 -12.5t-38.5 -7.5t-60.5 -2.5q-37 0 -61.5 2.5t-38.5 7.5t-20 12.5t-6 17.5v1158q-3 -6 -8.5 -9t-13.5 -3q-11 0 -29 4t-40 7.5t-43.5 5t-42.5 1.5q-45 0 -75 -9t-47.5 -27.5t-24.5 -48.5t-7 -71v-82h148q10 0 17.5 -5t12.5 -16.5t7.5 -31.5
t2.5 -49q0 -55 -10 -78.5t-29 -23.5h-149v-722q0 -10 -6 -17.5t-20 -12.5t-38.5 -7.5t-61.5 -2.5q-36 0 -60.5 2.5t-39 7.5t-20 12.5t-5.5 17.5v722h-112q-19 0 -28.5 23.5t-9.5 78.5q0 29 2.5 49t7 31.5t12 16.5t17.5 5h111v77q0 90 20 158.5t63.5 114t110 68t160.5 22.5
q27 0 57.5 -2t59.5 -5.5t50 -8t33 -9t19 -10.5t10 -15q1 9 5.5 16t17 13t37 9.5t65.5 3.5q36 0 60.5 -3t38.5 -8.5t20 -13.5t6 -18v-1315zM754 -123q3 11 11 19.5t23.5 13.5t41 7t65.5 2t63 -4t33.5 -11.5t10 -18.5t-7.5 -25l-98 -190q-5 -10 -12 -16.5t-19.5 -11t-33 -6
t-52.5 -1.5t-50.5 2.5t-27 9t-8.5 16.5t4 24z" />
    <glyph glyph-name="uniFB04" unicode="ffl" horiz-adv-x="1718" 
d="M1592 34q0 -10 -6 -17.5t-20.5 -12.5t-38.5 -7.5t-61 -2.5t-61 2.5t-38.5 7.5t-20.5 12.5t-6 17.5v1161q-4 -6 -9 -9.5t-14 -3.5q-10 0 -28 4t-40 7.5t-43.5 5t-42.5 1.5q-45 0 -75 -8.5t-47.5 -27.5t-25 -48.5t-7.5 -70.5v-85h149q10 0 17 -5t12.5 -16.5t8 -31.5
t2.5 -49q0 -55 -10.5 -78.5t-28.5 -23.5h-150v-722q0 -10 -6 -17.5t-20 -12.5t-38.5 -7.5t-60.5 -2.5q-37 0 -61.5 2.5t-38.5 7.5t-20 12.5t-6 17.5v722h-331v-722q0 -10 -6 -17.5t-20 -12.5t-39 -7.5t-61 -2.5t-60.5 2.5t-39 7.5t-20 12.5t-5.5 17.5v722h-112
q-19 0 -28.5 23.5t-9.5 78.5q0 29 2.5 49t7 31.5t12 16.5t17.5 5h111v66q0 90 18.5 158t57 113.5t97 68.5t138.5 23q44 0 79 -7.5t53.5 -14t25.5 -13t11.5 -19t6.5 -32t2 -48.5q0 -49 -6.5 -69t-21.5 -20q-7 0 -16 3l-21 7t-28.5 7.5t-36.5 3.5q-58 0 -83 -36.5t-25 -119.5
v-71h331v79q0 91 20.5 159t64 113.5t110 68t160.5 22.5q27 0 58 -2t59 -5.5t49.5 -8t33.5 -8.5t18.5 -10.5t10.5 -17.5q1 9 5 16t17.5 13t38 9.5t64.5 3.5q37 0 61 -3t38.5 -8.5t20.5 -13.5t6 -18v-1315z" />
    <glyph glyph-name="f_t.liga" unicode="ft" horiz-adv-x="1302" 
d="M426 756v-722q0 -10 -6 -17.5t-20 -12.5t-39 -7.5t-61 -2.5t-60.5 2.5t-39 7.5t-20 12.5t-5.5 17.5v722h-112q-19 0 -28.5 23.5t-9.5 78.5q0 29 2.5 49t7 31.5t12 16.5t17.5 5h111v75q0 91 18 159.5t56 114t97 68.5t140 23q39 0 76.5 -7t55 -14t24.5 -13.5t11 -19
t5.5 -32t1.5 -48.5t-2 -46.5t-6 -27t-9 -13t-11 -3.5t-14.5 3.5t-21 7.5t-29 7.5t-39.5 3.5q-27 0 -46.5 -8.5t-32 -27t-19 -48t-6.5 -72.5v-82h338v199q0 10 6 18t20 13.5t38.5 8t60.5 2.5q37 0 61 -2.5t38.5 -8t20.5 -13.5t6 -18v-199h194q10 0 17.5 -5t12.5 -16.5
t7.5 -31.5t2.5 -49q0 -55 -10 -78.5t-29 -23.5h-195v-419q0 -73 22.5 -109.5t82.5 -36.5q20 0 36 3.5t28 8t21 8t16 3.5q6 0 11 -3.5t8.5 -14t6 -28.5t2.5 -46q0 -44 -5.5 -68t-15 -33t-26.5 -16.5t-40.5 -13t-50.5 -8.5t-55 -3q-76 0 -131 19t-91 58.5t-53 99.5t-17 142
v457h-336z" />
    <glyph glyph-name="f_tcommaaccent.liga" unicode="f&#x163;" horiz-adv-x="1302" 
d="M426 756v-722q0 -10 -6 -17.5t-20 -12.5t-39 -7.5t-61 -2.5t-60.5 2.5t-39 7.5t-20 12.5t-5.5 17.5v722h-112q-19 0 -28.5 23.5t-9.5 78.5q0 29 2.5 49t7 31.5t12 16.5t17.5 5h111v75q0 91 18 159.5t56 114t97 68.5t140 23q39 0 76.5 -7t55 -14t24.5 -13.5t11 -19
t5.5 -32t1.5 -48.5t-2 -46.5t-6 -27t-9 -13t-11 -3.5t-14.5 3.5t-21 7.5t-29 7.5t-39.5 3.5q-27 0 -46.5 -8.5t-32 -27t-19 -48t-6.5 -72.5v-82h338v199q0 10 6 18t20 13.5t38.5 8t60.5 2.5q37 0 61 -2.5t38.5 -8t20.5 -13.5t6 -18v-199h194q10 0 17.5 -5t12.5 -16.5
t7.5 -31.5t2.5 -49q0 -55 -10 -78.5t-29 -23.5h-195v-419q0 -73 22.5 -109.5t82.5 -36.5q20 0 36 3.5t28 8t21 8t16 3.5q6 0 11 -3.5t8.5 -14t6 -28.5t2.5 -46q0 -44 -5.5 -68t-15 -33t-26.5 -16.5t-40.5 -13t-50.5 -8.5t-55 -3q-76 0 -131 19t-91 58.5t-53 99.5t-17 142
v457h-336zM871 -123q3 11 11 19.5t23.5 13.5t41 7t65.5 2t63 -4t33.5 -11.5t10 -18.5t-7.5 -25l-98 -190q-5 -10 -12 -16.5t-19.5 -11t-33 -6t-52.5 -1.5t-50.5 2.5t-27 9t-8.5 16.5t4 24z" />
    <glyph glyph-name="f_tcaron.liga" unicode="f&#x165;" horiz-adv-x="1349" 
d="M426 756v-722q0 -10 -6 -17.5t-20 -12.5t-39 -7.5t-61 -2.5t-60.5 2.5t-39 7.5t-20 12.5t-5.5 17.5v722h-112q-19 0 -28.5 23.5t-9.5 78.5q0 29 2.5 49t7 31.5t12 16.5t17.5 5h111v75q0 91 18 159.5t56 114t97 68.5t140 23q39 0 76.5 -7t55 -14t24.5 -13.5t11 -19
t5.5 -32t1.5 -48.5t-2 -46.5t-6 -27t-9 -13t-11 -3.5t-14.5 3.5t-21 7.5t-29 7.5t-39.5 3.5q-27 0 -46.5 -8.5t-32 -27t-19 -48t-6.5 -72.5v-82h338v199q0 10 6 18t20 13.5t38.5 8t60.5 2.5q37 0 61 -2.5t38.5 -8t20.5 -13.5t6 -18v-199h194q10 0 17.5 -5t12.5 -16.5
t7.5 -31.5t2.5 -49q0 -55 -10 -78.5t-29 -23.5h-195v-419q0 -73 22.5 -109.5t82.5 -36.5q20 0 36 3.5t28 8t21 8t16 3.5q6 0 11 -3.5t8.5 -14t6 -28.5t2.5 -46q0 -44 -5.5 -68t-15 -33t-26.5 -16.5t-40.5 -13t-50.5 -8.5t-55 -3q-76 0 -131 19t-91 58.5t-53 99.5t-17 142
v457h-336zM1191 1475q3 12 10.5 20.5t21.5 14.5t36 9t55 3q36 0 57.5 -3.5t31.5 -9.5t10.5 -15.5t-3.5 -21.5l-124 -314q-4 -11 -11 -17.5t-20 -10t-32 -5t-48 -1.5q-23 0 -36.5 2.5t-20 7.5t-7.5 14t2 22zM1008 1108z" />
    <glyph glyph-name="t_f.liga" unicode="tf" horiz-adv-x="1296" 
d="M823 960v75q0 91 18.5 159.5t57 114t97.5 68.5t141 23q38 0 73.5 -6.5t55 -14t27 -14t11.5 -19t6 -32t2 -48.5t-2 -46.5t-6 -27t-8.5 -13t-10.5 -3.5q-7 0 -24.5 6.5t-38 11t-42.5 4.5q-28 0 -48 -8.5t-32.5 -27t-19 -48t-6.5 -72.5v-82h163q9 0 16.5 -5t13 -16.5
t8 -31.5t2.5 -49q0 -55 -10.5 -78.5t-28.5 -23.5h-164v-722q0 -10 -6 -17.5t-20 -12.5t-38.5 -7.5t-61.5 -2.5q-36 0 -60.5 2.5t-39 7.5t-20 12.5t-5.5 17.5v722h-403v-419q0 -73 23 -109.5t82 -36.5q20 0 36 3.5t28.5 8t21 8t15.5 3.5q6 0 11.5 -3.5t8.5 -14t5.5 -28.5
t2.5 -46q0 -44 -5.5 -67.5t-14.5 -33t-26.5 -17t-41 -13t-51 -8.5t-55.5 -3q-75 0 -130 19t-91 58.5t-53 99.5t-17 142v457h-107q-19 0 -29 23.5t-10 78.5q0 29 2.5 49t7.5 31.5t12.5 16.5t17.5 5h106v199q0 10 5.5 18t20 13.5t39 8t60.5 2.5q37 0 61.5 -2.5t38.5 -8
t20 -13.5t6 -18v-199h403z" />
    <glyph glyph-name="t_i.liga" unicode="ti" horiz-adv-x="1199" 
d="M997 960q42 0 58.5 -18t16.5 -52v-856q0 -10 -6 -17.5t-20 -12.5t-38.5 -7.5t-60.5 -2.5q-37 0 -61.5 2.5t-38.5 7.5t-20 12.5t-6 17.5v722h-401v-419q0 -73 23 -109.5t82 -36.5q20 0 36 3.5t28.5 8t21 8t15.5 3.5q6 0 11.5 -3.5t8.5 -14t5.5 -28.5t2.5 -46
q0 -44 -5 -66.5t-14 -33t-27 -18t-41.5 -13t-51 -8.5t-55.5 -3q-75 0 -130 19t-91 58.5t-53 99.5t-17 142v457h-107q-19 0 -29 23.5t-10 78.5q0 29 2.5 49t7.5 31.5t12.5 16.5t17.5 5h106v199q0 10 5.5 18t20 13.5t39 8t60.5 2.5q37 0 61.5 -2.5t38.5 -8t20 -13.5t6 -18
v-199h577zM1092 1228q0 -76 -31 -105t-115 -29q-85 0 -114.5 28t-29.5 101q0 76 30.5 105.5t115.5 29.5q84 0 114 -28.5t30 -101.5zM695 960z" />
    <glyph glyph-name="t_igrave.liga" unicode="t&#xec;" horiz-adv-x="1199" 
d="M997 960q42 0 58.5 -18t16.5 -52v-856q0 -10 -6 -17.5t-20 -12.5t-38.5 -7.5t-60.5 -2.5q-37 0 -61.5 2.5t-38.5 7.5t-20 12.5t-6 17.5v722h-401v-419q0 -73 23 -109.5t82 -36.5q20 0 36 3.5t28.5 8t21 8t15.5 3.5q6 0 11.5 -3.5t8.5 -14t5.5 -28.5t2.5 -46
q0 -44 -5 -66.5t-14 -33t-27 -18t-41.5 -13t-51 -8.5t-55.5 -3q-75 0 -130 19t-91 58.5t-53 99.5t-17 142v457h-107q-19 0 -29 23.5t-10 78.5q0 29 2.5 49t7.5 31.5t12.5 16.5t17.5 5h106v199q0 10 5.5 18t20 13.5t39 8t60.5 2.5q37 0 61.5 -2.5t38.5 -8t20 -13.5t6 -18
v-199h577zM1041 1135q9 -13 11 -23t-6.5 -16.5t-28 -9.5t-54.5 -3q-29 0 -48 2t-32 6t-21.5 10.5t-16.5 16.5l-193 232q-10 11 -11 21t10.5 17.5t38.5 11.5t73 4q33 0 55.5 -2t37.5 -6.5t24.5 -12.5t17.5 -19zM539 960z" />
    <glyph glyph-name="t_iacute.liga" unicode="t&#xed;" horiz-adv-x="1199" 
d="M997 960q42 0 58.5 -18t16.5 -52v-856q0 -10 -6 -17.5t-20 -12.5t-38.5 -7.5t-60.5 -2.5q-37 0 -61.5 2.5t-38.5 7.5t-20 12.5t-6 17.5v722h-401v-419q0 -73 23 -109.5t82 -36.5q20 0 36 3.5t28.5 8t21 8t15.5 3.5q6 0 11.5 -3.5t8.5 -14t5.5 -28.5t2.5 -46
q0 -44 -5 -66.5t-14 -33t-27 -18t-41.5 -13t-51 -8.5t-55.5 -3q-75 0 -130 19t-91 58.5t-53 99.5t-17 142v457h-107q-19 0 -29 23.5t-10 78.5q0 29 2.5 49t7.5 31.5t12.5 16.5t17.5 5h106v199q0 10 5.5 18t20 13.5t39 8t60.5 2.5q37 0 61.5 -2.5t38.5 -8t20 -13.5t6 -18
v-199h577zM975 1364q7 11 17 19t25 12.5t38 6.5t56 2q46 0 72.5 -4t38 -11.5t10.5 -17.5t-10 -21l-194 -232q-8 -10 -16 -16.5t-20.5 -10.5t-31.5 -6t-48 -2q-35 0 -55.5 3t-28.5 9.5t-6.5 16.5t10.5 23zM719 960z" />
    <glyph glyph-name="t_icircumflex.liga" unicode="t&#xee;" horiz-adv-x="1199" 
d="M997 960q42 0 58.5 -18t16.5 -52v-856q0 -10 -6 -17.5t-20 -12.5t-38.5 -7.5t-60.5 -2.5q-37 0 -61.5 2.5t-38.5 7.5t-20 12.5t-6 17.5v722h-401v-419q0 -73 23 -109.5t82 -36.5q20 0 36 3.5t28.5 8t21 8t15.5 3.5q6 0 11.5 -3.5t8.5 -14t5.5 -28.5t2.5 -46
q0 -44 -5 -66.5t-14 -33t-27 -18t-41.5 -13t-51 -8.5t-55.5 -3q-75 0 -130 19t-91 58.5t-53 99.5t-17 142v457h-107q-19 0 -29 23.5t-10 78.5q0 29 2.5 49t7.5 31.5t12.5 16.5t17.5 5h106v199q0 10 5.5 18t20 13.5t39 8t60.5 2.5q37 0 61.5 -2.5t38.5 -8t20 -13.5t6 -18
v-199h577zM828 1118q-7 -11 -14 -18t-19 -10.5t-30.5 -5t-48.5 -1.5q-40 0 -61.5 3.5t-28.5 11t-1.5 20.5t19.5 31l158 223q6 10 15.5 15.5t25 9.5t37.5 5.5t53 1.5q32 0 53.5 -2t36 -6t23.5 -10t16 -14l157 -223q14 -19 19 -31.5t-2 -20t-28.5 -11t-60.5 -3.5
q-32 0 -50.5 1.5t-30 5.5t-17.5 10.5t-13 17.5l-104 150zM521 960z" />
    <glyph glyph-name="t_idieresis.liga" unicode="t&#xef;" horiz-adv-x="1199" 
d="M997 960q42 0 58.5 -18t16.5 -52v-856q0 -10 -6 -17.5t-20 -12.5t-38.5 -7.5t-60.5 -2.5q-37 0 -61.5 2.5t-38.5 7.5t-20 12.5t-6 17.5v722h-401v-419q0 -73 23 -109.5t82 -36.5q20 0 36 3.5t28.5 8t21 8t15.5 3.5q6 0 11.5 -3.5t8.5 -14t5.5 -28.5t2.5 -46
q0 -44 -5 -66.5t-14 -33t-27 -18t-41.5 -13t-51 -8.5t-55.5 -3q-75 0 -130 19t-91 58.5t-53 99.5t-17 142v457h-107q-19 0 -29 23.5t-10 78.5q0 29 2.5 49t7.5 31.5t12.5 16.5t17.5 5h106v199q0 10 5.5 18t20 13.5t39 8t60.5 2.5q37 0 61.5 -2.5t38.5 -8t20 -13.5t6 -18
v-199h577zM893 1227q0 -70 -26 -97.5t-96 -27.5q-71 0 -96 26.5t-25 93.5q0 71 26 98.5t95 27.5q72 0 97 -26.5t25 -94.5zM1229 1227q0 -70 -26 -97.5t-96 -27.5q-71 0 -95.5 26.5t-24.5 93.5q0 71 25.5 98.5t95.5 27.5q71 0 96 -26.5t25 -94.5zM548 960z" />
    <glyph glyph-name="t_imacron.liga" unicode="t&#x12b;" horiz-adv-x="1199" 
d="M997 960q42 0 58.5 -18t16.5 -52v-856q0 -10 -6 -17.5t-20 -12.5t-38.5 -7.5t-60.5 -2.5q-37 0 -61.5 2.5t-38.5 7.5t-20 12.5t-6 17.5v722h-401v-419q0 -73 23 -109.5t82 -36.5q20 0 36 3.5t28.5 8t21 8t15.5 3.5q6 0 11.5 -3.5t8.5 -14t5.5 -28.5t2.5 -46
q0 -44 -5 -66.5t-14 -33t-27 -18t-41.5 -13t-51 -8.5t-55.5 -3q-75 0 -130 19t-91 58.5t-53 99.5t-17 142v457h-107q-19 0 -29 23.5t-10 78.5q0 29 2.5 49t7.5 31.5t12.5 16.5t17.5 5h106v199q0 10 5.5 18t20 13.5t39 8t60.5 2.5q37 0 61.5 -2.5t38.5 -8t20 -13.5t6 -18
v-199h577zM1193 1323q11 0 19 -4.5t12.5 -15.5t7 -28.5t2.5 -43.5t-2.5 -43t-7 -28t-12.5 -15.5t-19 -4.5h-510q-12 0 -20.5 4.5t-13.5 15.5t-7.5 28t-2.5 43q0 25 2.5 43t7.5 28.5t13.5 15.5t20.5 5h510zM537 960z" />
    <glyph glyph-name="t_itilde.liga" unicode="t&#x129;" horiz-adv-x="1199" 
d="M997 960q42 0 58.5 -18t16.5 -52v-856q0 -10 -6 -17.5t-20 -12.5t-38.5 -7.5t-60.5 -2.5q-37 0 -61.5 2.5t-38.5 7.5t-20 12.5t-6 17.5v722h-401v-419q0 -73 23 -109.5t82 -36.5q20 0 36 3.5t28.5 8t21 8t15.5 3.5q6 0 11.5 -3.5t8.5 -14t5.5 -28.5t2.5 -46
q0 -44 -5 -66.5t-14 -33t-27 -18t-41.5 -13t-51 -8.5t-55.5 -3q-75 0 -130 19t-91 58.5t-53 99.5t-17 142v457h-107q-19 0 -29 23.5t-10 78.5q0 29 2.5 49t7.5 31.5t12.5 16.5t17.5 5h106v199q0 10 5.5 18t20 13.5t39 8t60.5 2.5q37 0 61.5 -2.5t38.5 -8t20 -13.5t6 -18
v-199h577zM1283 1336q0 -121 -57.5 -185.5t-159.5 -64.5q-39 0 -69 8t-54 21t-43.5 27.5t-37.5 27t-35.5 21t-37.5 8.5q-33 0 -47 -23.5t-14 -61.5q0 -9 -3.5 -14.5t-12 -8.5t-24 -4t-39.5 -1q-21 0 -35.5 1.5t-23 6t-12.5 12.5t-4 21q0 116 56 182.5t160 66.5
q57 0 96.5 -17.5t70 -39t56.5 -39t54 -17.5q30 0 46 21.5t16 63.5q0 17 15 22.5t61 5.5q45 0 61.5 -7.5t16.5 -32.5zM473 960z" />
    <glyph glyph-name="t_ibreve.liga" unicode="t&#x12d;" horiz-adv-x="1199" 
d="M997 960q42 0 58.5 -18t16.5 -52v-856q0 -10 -6 -17.5t-20 -12.5t-38.5 -7.5t-60.5 -2.5q-37 0 -61.5 2.5t-38.5 7.5t-20 12.5t-6 17.5v722h-401v-419q0 -73 23 -109.5t82 -36.5q20 0 36 3.5t28.5 8t21 8t15.5 3.5q6 0 11.5 -3.5t8.5 -14t5.5 -28.5t2.5 -46
q0 -44 -5 -66.5t-14 -33t-27 -18t-41.5 -13t-51 -8.5t-55.5 -3q-75 0 -130 19t-91 58.5t-53 99.5t-17 142v457h-107q-19 0 -29 23.5t-10 78.5q0 29 2.5 49t7.5 31.5t12.5 16.5t17.5 5h106v199q0 10 5.5 18t20 13.5t39 8t60.5 2.5q37 0 61.5 -2.5t38.5 -8t20 -13.5t6 -18
v-199h577zM1060 1361q2 19 19.5 29t61.5 10q26 0 43 -2t26.5 -6t13 -11t3.5 -16q0 -67 -17.5 -119t-53 -87.5t-91 -54t-130.5 -18.5q-78 0 -133 18.5t-90 54t-51.5 87t-16.5 117.5q0 20 17 28.5t65 8.5q25 0 41.5 -2t26.5 -7t14 -12.5t5 -17.5q3 -27 10 -48.5t21.5 -37
t36.5 -23.5t54 -8q29 0 51 7t38 21.5t25 36t11 52.5zM542 960z" />
    <glyph glyph-name="t_iogonek.liga" unicode="t&#x12f;" horiz-adv-x="1199" 
d="M993 960q45 0 62 -18t17 -57v-850q0 -13 -7.5 -31t-18.5 -29l-58 -59q-13 -12 -21.5 -22.5t-13 -19t-6.5 -16.5t-2 -17q0 -21 15 -31t47 -10h83q10 0 16.5 -2.5t11 -9t6 -18.5t1.5 -30q0 -21 -2 -35t-6 -23.5t-11.5 -14.5t-18.5 -8q-34 -12 -75 -18t-95 -6
q-49 0 -88.5 10t-67.5 30.5t-43 51t-15 71.5q0 21 3.5 40.5t12 38.5t23 38.5t36.5 41.5l43 43v756h-401v-419q0 -73 23 -109.5t82 -36.5q20 0 36 3.5t28.5 8t21 8t15.5 3.5q6 0 11.5 -3.5t8.5 -14t5.5 -28.5t2.5 -46q0 -44 -5 -67t-14 -33t-27 -17.5t-41.5 -13t-51 -8.5
t-55.5 -3q-75 0 -130 19t-91 58.5t-53 99.5t-17 142v457h-107q-19 0 -29 23.5t-10 78.5q0 29 2.5 49t7.5 31.5t12.5 16.5t17.5 5h106v199q0 10 5.5 18t20 13.5t39 8t60.5 2.5q37 0 61.5 -2.5t38.5 -8t20 -13.5t6 -18v-199h573zM1091 1226q0 -37 -6.5 -62.5t-23 -41
t-44.5 -22t-70 -6.5t-70 6.5t-45 22t-23.5 41t-6.5 62.5q0 36 6.5 61t23.5 41t45 23t70 7t70 -7t44.5 -23t23 -41t6.5 -61z" />
    <glyph glyph-name="t_dotlessi.liga" unicode="t&#x131;" horiz-adv-x="1199" 
d="M997 960q42 0 58.5 -18t16.5 -52v-856q0 -10 -6 -17.5t-20 -12.5t-38.5 -7.5t-60.5 -2.5q-37 0 -61.5 2.5t-38.5 7.5t-20 12.5t-6 17.5v722h-401v-419q0 -73 23 -109.5t82 -36.5q20 0 36 3.5t28.5 8t21 8t15.5 3.5q6 0 11.5 -3.5t8.5 -14t5.5 -28.5t2.5 -46
q0 -44 -5 -66.5t-14 -33t-27 -18t-41.5 -13t-51 -8.5t-55.5 -3q-75 0 -130 19t-91 58.5t-53 99.5t-17 142v457h-107q-19 0 -29 23.5t-10 78.5q0 29 2.5 49t7.5 31.5t12.5 16.5t17.5 5h106v199q0 10 5.5 18t20 13.5t39 8t60.5 2.5q37 0 61.5 -2.5t38.5 -8t20 -13.5t6 -18
v-199h577z" />
    <glyph glyph-name="t_t.liga" unicode="tt" horiz-adv-x="1344" 
d="M1288 122q0 -44 -5.5 -67t-15 -33t-27 -17t-40.5 -13t-50.5 -9t-54.5 -3q-76 0 -131 19t-91 58.5t-53 99.5t-17 142v457h-383v-419q0 -73 23 -109.5t82 -36.5q20 0 36 3.5t28.5 8t21 8t15.5 3.5q6 0 11.5 -3.5t8.5 -14t5.5 -28.5t2.5 -46t-1.5 -44.5t-4 -27.5t-6 -18.5
t-11.5 -14t-25 -13.5t-40 -12.5t-50.5 -8.5t-55.5 -3q-75 0 -130 19t-91 58.5t-53 99.5t-17 142v457h-107q-19 0 -29 23.5t-10 78.5q0 29 2.5 49t7.5 31.5t12.5 16.5t17.5 5h106v199q0 10 5.5 18t20 13.5t39 8t60.5 2.5q37 0 61.5 -2.5t38.5 -8t20 -13.5t6 -18v-199h383v247
q0 10 5.5 18t20 13t39 8t60.5 3q37 0 61.5 -3t38.5 -8t20 -13t6 -18v-247h194q10 0 17 -5t12.5 -16.5t8 -31.5t2.5 -49q0 -55 -10.5 -78.5t-28.5 -23.5h-195v-419q0 -73 22.5 -109.5t82.5 -36.5q20 0 36 3.5t28 8t21 8t16 3.5q6 0 11 -3.5t8.5 -14t6 -28.5t2.5 -46z" />
    <glyph glyph-name="t_t_f.liga" unicode="ttf" horiz-adv-x="1930" 
d="M1946 1266q0 -29 -2 -46.5t-5.5 -27t-9 -13t-11.5 -3.5q-7 0 -15.5 3.5t-21 7.5t-29.5 7.5t-39 3.5q-27 0 -47 -8.5t-32.5 -27t-19 -48t-6.5 -72.5v-82h163q9 0 16.5 -5t12.5 -16.5t7.5 -31.5t2.5 -49q0 -55 -10 -78.5t-29 -23.5h-163v-722q0 -10 -6 -17.5t-20 -12.5
t-38.5 -7.5t-60.5 -2.5q-37 0 -61.5 2.5t-38.5 7.5t-20 12.5t-6 17.5v722h-403v-419q0 -73 22.5 -109.5t82.5 -36.5q20 0 36 3.5t28 8t21 8t16 3.5q6 0 11 -3.5t8.5 -14t6 -28.5t2.5 -46q0 -44 -5 -66t-14.5 -33t-27.5 -18.5t-41 -13t-50.5 -8.5t-54.5 -3q-76 0 -131 19
t-91 58.5t-53 99.5t-17 142v457h-383v-419q0 -73 23 -109.5t82 -36.5q20 0 36 3.5t28.5 8t21 8t15.5 3.5q6 0 11.5 -3.5t8.5 -14t5.5 -28.5t2.5 -46q0 -44 -5 -66.5t-14 -33t-27.5 -18t-41.5 -13t-50.5 -8.5t-55.5 -3q-75 0 -130 19t-91 58.5t-53 99.5t-17 142v457h-107
q-19 0 -29 23.5t-10 78.5q0 29 2.5 49t7.5 31.5t12.5 16.5t17.5 5h106v199q0 10 5.5 18t20 13.5t39 8t60.5 2.5q37 0 61.5 -2.5t38.5 -8t20 -13.5t6 -18v-199h383v247q0 10 5.5 18t20 13t39 8t60.5 3q37 0 61.5 -3t38.5 -8t20 -13t6 -18v-247h403v75q0 91 18.5 159.5t57 114
t97.5 68.5t141 23q37 0 73 -7t55.5 -14t27 -13.5t12 -19t6 -32t1.5 -48.5z" />
    <glyph glyph-name="t_t_i.liga" unicode="tti" horiz-adv-x="1832" 
d="M420 756v-419q0 -73 23 -109.5t82 -36.5q20 0 36 3.5t28.5 8t21 8t15.5 3.5q6 0 11.5 -3.5t8.5 -14t5.5 -28.5t2.5 -46q0 -44 -5.5 -68t-15 -33t-26.5 -16.5t-40.5 -13t-51 -8.5t-55.5 -3q-75 0 -130 19t-91 58.5t-53 99.5t-17 142v457h-107q-19 0 -29 23.5t-10 78.5
q0 29 2.5 49t7.5 31.5t12.5 16.5t17.5 5h106v199q0 10 5.5 18t20 13.5t39 8t60.5 2.5q37 0 61.5 -2.5t38.5 -8t20 -13.5t6 -18v-199h383v247q0 10 5.5 18t20 13t39 8t60.5 3q37 0 61.5 -3t38.5 -8t20 -13t6 -18v-247h576q42 0 59 -18t17 -52v-856q0 -10 -6 -17.5t-20 -12.5
t-38.5 -7.5t-60.5 -2.5q-37 0 -61.5 2.5t-38.5 7.5t-20 12.5t-6 17.5v722h-401v-419q0 -73 22.5 -109.5t82.5 -36.5q20 0 36 3.5t28 8t21 8t16 3.5q6 0 11 -3.5t8.5 -14t6 -28.5t2.5 -46q0 -44 -5.5 -68t-15 -33t-26.5 -16.5t-40.5 -13t-51 -8.5t-54.5 -3q-76 0 -131 19
t-91 58.5t-53 99.5t-17 142v457h-383zM1726 1228q0 -76 -31 -105t-115 -29q-85 0 -114.5 28t-29.5 101q0 76 30.5 105.5t115.5 29.5q84 0 114 -28.5t30 -101.5zM1329 960z" />
    <glyph glyph-name="t_t_igrave.liga" unicode="tt&#xec;" horiz-adv-x="1832" 
d="M420 756v-419q0 -73 23 -109.5t82 -36.5q20 0 36 3.5t28.5 8t21 8t15.5 3.5q6 0 11.5 -3.5t8.5 -14t5.5 -28.5t2.5 -46q0 -44 -5.5 -68t-15 -33t-26.5 -16.5t-40.5 -13t-51 -8.5t-55.5 -3q-75 0 -130 19t-91 58.5t-53 99.5t-17 142v457h-107q-19 0 -29 23.5t-10 78.5
q0 29 2.5 49t7.5 31.5t12.5 16.5t17.5 5h106v199q0 10 5.5 18t20 13.5t39 8t60.5 2.5q37 0 61.5 -2.5t38.5 -8t20 -13.5t6 -18v-199h383v247q0 10 5.5 18t20 13t39 8t60.5 3q37 0 61.5 -3t38.5 -8t20 -13t6 -18v-247h576q42 0 59 -18t17 -52v-856q0 -10 -6 -17.5t-20 -12.5
t-38.5 -7.5t-60.5 -2.5q-37 0 -61.5 2.5t-38.5 7.5t-20 12.5t-6 17.5v722h-401v-419q0 -73 22.5 -109.5t82.5 -36.5q20 0 36 3.5t28 8t21 8t16 3.5q6 0 11 -3.5t8.5 -14t6 -28.5t2.5 -46q0 -44 -5.5 -68t-15 -33t-26.5 -16.5t-40.5 -13t-51 -8.5t-54.5 -3q-76 0 -131 19
t-91 58.5t-53 99.5t-17 142v457h-383zM1676 1135q9 -13 11 -23t-6.5 -16.5t-28 -9.5t-54.5 -3q-29 0 -48 2t-32 6t-21.5 10.5t-16.5 16.5l-193 232q-10 11 -11 21t10.5 17.5t38.5 11.5t73 4q33 0 55.5 -2t37.5 -6.5t24.5 -12.5t17.5 -19zM1174 960z" />
    <glyph glyph-name="t_t_iacute.liga" unicode="tt&#xed;" horiz-adv-x="1832" 
d="M420 756v-419q0 -73 23 -109.5t82 -36.5q20 0 36 3.5t28.5 8t21 8t15.5 3.5q6 0 11.5 -3.5t8.5 -14t5.5 -28.5t2.5 -46q0 -44 -5.5 -68t-15 -33t-26.5 -16.5t-40.5 -13t-51 -8.5t-55.5 -3q-75 0 -130 19t-91 58.5t-53 99.5t-17 142v457h-107q-19 0 -29 23.5t-10 78.5
q0 29 2.5 49t7.5 31.5t12.5 16.5t17.5 5h106v199q0 10 5.5 18t20 13.5t39 8t60.5 2.5q37 0 61.5 -2.5t38.5 -8t20 -13.5t6 -18v-199h383v247q0 10 5.5 18t20 13t39 8t60.5 3q37 0 61.5 -3t38.5 -8t20 -13t6 -18v-247h576q42 0 59 -18t17 -52v-856q0 -10 -6 -17.5t-20 -12.5
t-38.5 -7.5t-60.5 -2.5q-37 0 -61.5 2.5t-38.5 7.5t-20 12.5t-6 17.5v722h-401v-419q0 -73 22.5 -109.5t82.5 -36.5q20 0 36 3.5t28 8t21 8t16 3.5q6 0 11 -3.5t8.5 -14t6 -28.5t2.5 -46q0 -44 -5.5 -68t-15 -33t-26.5 -16.5t-40.5 -13t-51 -8.5t-54.5 -3q-76 0 -131 19
t-91 58.5t-53 99.5t-17 142v457h-383zM1609 1364q7 11 17 19t25 12.5t38 6.5t56 2q46 0 72.5 -4t38 -11.5t10.5 -17.5t-10 -21l-194 -232q-8 -10 -16 -16.5t-20.5 -10.5t-31.5 -6t-48 -2q-35 0 -55.5 3t-28.5 9.5t-6.5 16.5t10.5 23zM1353 960z" />
    <glyph glyph-name="t_t_icircumflex.liga" unicode="tt&#xee;" horiz-adv-x="1832" 
d="M420 756v-419q0 -73 23 -109.5t82 -36.5q20 0 36 3.5t28.5 8t21 8t15.5 3.5q6 0 11.5 -3.5t8.5 -14t5.5 -28.5t2.5 -46q0 -44 -5.5 -68t-15 -33t-26.5 -16.5t-40.5 -13t-51 -8.5t-55.5 -3q-75 0 -130 19t-91 58.5t-53 99.5t-17 142v457h-107q-19 0 -29 23.5t-10 78.5
q0 29 2.5 49t7.5 31.5t12.5 16.5t17.5 5h106v199q0 10 5.5 18t20 13.5t39 8t60.5 2.5q37 0 61.5 -2.5t38.5 -8t20 -13.5t6 -18v-199h383v247q0 10 5.5 18t20 13t39 8t60.5 3q37 0 61.5 -3t38.5 -8t20 -13t6 -18v-247h576q42 0 59 -18t17 -52v-856q0 -10 -6 -17.5t-20 -12.5
t-38.5 -7.5t-60.5 -2.5q-37 0 -61.5 2.5t-38.5 7.5t-20 12.5t-6 17.5v722h-401v-419q0 -73 22.5 -109.5t82.5 -36.5q20 0 36 3.5t28 8t21 8t16 3.5q6 0 11 -3.5t8.5 -14t6 -28.5t2.5 -46q0 -44 -5.5 -68t-15 -33t-26.5 -16.5t-40.5 -13t-51 -8.5t-54.5 -3q-76 0 -131 19
t-91 58.5t-53 99.5t-17 142v457h-383zM1461 1118q-7 -11 -14 -18t-19 -10.5t-30.5 -5t-48.5 -1.5q-40 0 -61.5 3.5t-28.5 11t-1.5 20.5t19.5 31l158 223q6 10 15.5 15.5t25 9.5t37.5 5.5t53 1.5q32 0 53.5 -2t36 -6t23.5 -10t16 -14l157 -223q14 -19 19 -31.5t-2 -20
t-28.5 -11t-60.5 -3.5q-32 0 -50.5 1.5t-30 5.5t-17.5 10.5t-13 17.5l-104 150zM1154 960z" />
    <glyph glyph-name="t_t_idieresis.liga" unicode="tt&#xef;" horiz-adv-x="1832" 
d="M420 756v-419q0 -73 23 -109.5t82 -36.5q20 0 36 3.5t28.5 8t21 8t15.5 3.5q6 0 11.5 -3.5t8.5 -14t5.5 -28.5t2.5 -46q0 -44 -5.5 -68t-15 -33t-26.5 -16.5t-40.5 -13t-51 -8.5t-55.5 -3q-75 0 -130 19t-91 58.5t-53 99.5t-17 142v457h-107q-19 0 -29 23.5t-10 78.5
q0 29 2.5 49t7.5 31.5t12.5 16.5t17.5 5h106v199q0 10 5.5 18t20 13.5t39 8t60.5 2.5q37 0 61.5 -2.5t38.5 -8t20 -13.5t6 -18v-199h383v247q0 10 5.5 18t20 13t39 8t60.5 3q37 0 61.5 -3t38.5 -8t20 -13t6 -18v-247h576q42 0 59 -18t17 -52v-856q0 -10 -6 -17.5t-20 -12.5
t-38.5 -7.5t-60.5 -2.5q-37 0 -61.5 2.5t-38.5 7.5t-20 12.5t-6 17.5v722h-401v-419q0 -73 22.5 -109.5t82.5 -36.5q20 0 36 3.5t28 8t21 8t16 3.5q6 0 11 -3.5t8.5 -14t6 -28.5t2.5 -46q0 -44 -5.5 -68t-15 -33t-26.5 -16.5t-40.5 -13t-51 -8.5t-54.5 -3q-76 0 -131 19
t-91 58.5t-53 99.5t-17 142v457h-383zM1527 1227q0 -70 -26 -97.5t-96 -27.5q-71 0 -96 26.5t-25 93.5q0 71 26 98.5t95 27.5q72 0 97 -26.5t25 -94.5zM1863 1227q0 -70 -26 -97.5t-96 -27.5q-71 0 -95.5 26.5t-24.5 93.5q0 71 25.5 98.5t95.5 27.5q71 0 96 -26.5t25 -94.5z
M1182 960z" />
    <glyph glyph-name="t_t_imacron.liga" unicode="tt&#x12b;" horiz-adv-x="1832" 
d="M420 756v-419q0 -73 23 -109.5t82 -36.5q20 0 36 3.5t28.5 8t21 8t15.5 3.5q6 0 11.5 -3.5t8.5 -14t5.5 -28.5t2.5 -46q0 -44 -5.5 -68t-15 -33t-26.5 -16.5t-40.5 -13t-51 -8.5t-55.5 -3q-75 0 -130 19t-91 58.5t-53 99.5t-17 142v457h-107q-19 0 -29 23.5t-10 78.5
q0 29 2.5 49t7.5 31.5t12.5 16.5t17.5 5h106v199q0 10 5.5 18t20 13.5t39 8t60.5 2.5q37 0 61.5 -2.5t38.5 -8t20 -13.5t6 -18v-199h383v247q0 10 5.5 18t20 13t39 8t60.5 3q37 0 61.5 -3t38.5 -8t20 -13t6 -18v-247h576q42 0 59 -18t17 -52v-856q0 -10 -6 -17.5t-20 -12.5
t-38.5 -7.5t-60.5 -2.5q-37 0 -61.5 2.5t-38.5 7.5t-20 12.5t-6 17.5v722h-401v-419q0 -73 22.5 -109.5t82.5 -36.5q20 0 36 3.5t28 8t21 8t16 3.5q6 0 11 -3.5t8.5 -14t6 -28.5t2.5 -46q0 -44 -5.5 -68t-15 -33t-26.5 -16.5t-40.5 -13t-51 -8.5t-54.5 -3q-76 0 -131 19
t-91 58.5t-53 99.5t-17 142v457h-383zM1827 1323q11 0 19 -4.5t12.5 -15.5t7 -28.5t2.5 -43.5t-2.5 -43t-7 -28t-12.5 -15.5t-19 -4.5h-510q-12 0 -20.5 4.5t-13.5 15.5t-7.5 28t-2.5 43q0 25 2.5 43t7.5 28.5t13.5 15.5t20.5 5h510zM1171 960z" />
    <glyph glyph-name="t_t_itilde.liga" unicode="tt&#x129;" horiz-adv-x="1832" 
d="M420 756v-419q0 -73 23 -109.5t82 -36.5q20 0 36 3.5t28.5 8t21 8t15.5 3.5q6 0 11.5 -3.5t8.5 -14t5.5 -28.5t2.5 -46q0 -44 -5.5 -68t-15 -33t-26.5 -16.5t-40.5 -13t-51 -8.5t-55.5 -3q-75 0 -130 19t-91 58.5t-53 99.5t-17 142v457h-107q-19 0 -29 23.5t-10 78.5
q0 29 2.5 49t7.5 31.5t12.5 16.5t17.5 5h106v199q0 10 5.5 18t20 13.5t39 8t60.5 2.5q37 0 61.5 -2.5t38.5 -8t20 -13.5t6 -18v-199h383v247q0 10 5.5 18t20 13t39 8t60.5 3q37 0 61.5 -3t38.5 -8t20 -13t6 -18v-247h576q42 0 59 -18t17 -52v-856q0 -10 -6 -17.5t-20 -12.5
t-38.5 -7.5t-60.5 -2.5q-37 0 -61.5 2.5t-38.5 7.5t-20 12.5t-6 17.5v722h-401v-419q0 -73 22.5 -109.5t82.5 -36.5q20 0 36 3.5t28 8t21 8t16 3.5q6 0 11 -3.5t8.5 -14t6 -28.5t2.5 -46q0 -44 -5.5 -68t-15 -33t-26.5 -16.5t-40.5 -13t-51 -8.5t-54.5 -3q-76 0 -131 19
t-91 58.5t-53 99.5t-17 142v457h-383zM1917 1336q0 -121 -57.5 -185.5t-159.5 -64.5q-39 0 -69 8t-54 21t-43.5 27.5t-37.5 27t-35.5 21t-37.5 8.5q-33 0 -47 -23.5t-14 -61.5q0 -9 -3.5 -14.5t-12 -8.5t-24 -4t-39.5 -1q-21 0 -35.5 1.5t-23 6t-12.5 12.5t-4 21
q0 116 56 182.5t160 66.5q57 0 96.5 -17.5t70 -39t56.5 -39t54 -17.5q30 0 46 21.5t16 63.5q0 17 15 22.5t61 5.5q45 0 61.5 -7.5t16.5 -32.5zM1107 960z" />
    <glyph glyph-name="t_t_ibreve.liga" unicode="tt&#x12d;" horiz-adv-x="1832" 
d="M420 756v-419q0 -73 23 -109.5t82 -36.5q20 0 36 3.5t28.5 8t21 8t15.5 3.5q6 0 11.5 -3.5t8.5 -14t5.5 -28.5t2.5 -46q0 -44 -5.5 -68t-15 -33t-26.5 -16.5t-40.5 -13t-51 -8.5t-55.5 -3q-75 0 -130 19t-91 58.5t-53 99.5t-17 142v457h-107q-19 0 -29 23.5t-10 78.5
q0 29 2.5 49t7.5 31.5t12.5 16.5t17.5 5h106v199q0 10 5.5 18t20 13.5t39 8t60.5 2.5q37 0 61.5 -2.5t38.5 -8t20 -13.5t6 -18v-199h383v247q0 10 5.5 18t20 13t39 8t60.5 3q37 0 61.5 -3t38.5 -8t20 -13t6 -18v-247h576q42 0 59 -18t17 -52v-856q0 -10 -6 -17.5t-20 -12.5
t-38.5 -7.5t-60.5 -2.5q-37 0 -61.5 2.5t-38.5 7.5t-20 12.5t-6 17.5v722h-401v-419q0 -73 22.5 -109.5t82.5 -36.5q20 0 36 3.5t28 8t21 8t16 3.5q6 0 11 -3.5t8.5 -14t6 -28.5t2.5 -46q0 -44 -5.5 -68t-15 -33t-26.5 -16.5t-40.5 -13t-51 -8.5t-54.5 -3q-76 0 -131 19
t-91 58.5t-53 99.5t-17 142v457h-383zM1695 1361q2 19 19.5 29t61.5 10q26 0 43 -2t26.5 -6t13 -11t3.5 -16q0 -67 -17.5 -119t-53 -87.5t-91 -54t-130.5 -18.5q-78 0 -133 18.5t-90 54t-51.5 87t-16.5 117.5q0 20 17 28.5t65 8.5q25 0 41.5 -2t26.5 -7t14 -12.5t5 -17.5
q3 -27 10 -48.5t21.5 -37t36.5 -23.5t54 -8q29 0 51 7t38 21.5t25 36t11 52.5zM1177 960z" />
    <glyph glyph-name="t_t_iogonek.liga" unicode="tt&#x12f;" horiz-adv-x="1832" 
d="M1759 -260q0 -21 -2 -35t-6 -23.5t-11.5 -14.5t-18.5 -8q-35 -12 -75.5 -18t-94.5 -6q-49 0 -89 10t-68 30.5t-43 51t-15 71.5q0 21 3.5 40.5t12.5 38.5t23.5 38.5t36.5 41.5l43 43v756h-401v-419q0 -73 22.5 -109.5t82.5 -36.5q20 0 36 3.5t28 8t21 8t16 3.5
q6 0 11 -3.5t8.5 -14t6 -28.5t2.5 -46q0 -44 -5.5 -68t-15 -33t-26.5 -16.5t-40.5 -13t-51 -8.5t-54.5 -3q-76 0 -131 19t-91 58.5t-53 99.5t-17 142v457h-383v-419q0 -73 23 -109.5t82 -36.5q20 0 36 3.5t28.5 8t21 8t15.5 3.5q6 0 11.5 -3.5t8.5 -14t5.5 -28.5t2.5 -46
q0 -44 -5.5 -68t-15 -33t-26.5 -16.5t-40.5 -13t-51 -8.5t-55.5 -3q-75 0 -130 19t-91 58.5t-53 99.5t-17 142v457h-107q-19 0 -29 23.5t-10 78.5q0 29 2.5 49t7.5 31.5t12.5 16.5t17.5 5h106v199q0 10 5.5 18t20 13.5t39 8t60.5 2.5q37 0 61.5 -2.5t38.5 -8t20 -13.5t6 -18
v-199h383v247q0 10 5.5 18t20 13t39 8t60.5 3q37 0 61.5 -3t38.5 -8t20 -13t6 -18v-247h576q42 0 59 -18t17 -52v-855q0 -13 -7.5 -31t-18.5 -29l-59 -59q-25 -25 -33.5 -42t-8.5 -33q0 -41 62 -41h83q10 0 17 -2.5t11 -9t5.5 -18.5t1.5 -30zM1725 1226q0 -37 -6.5 -62.5
t-23 -41t-44.5 -22t-70 -6.5q-43 0 -71 6.5t-44.5 22t-23 41t-6.5 62.5q0 36 6.5 61t23 41t44.5 23t71 7q42 0 70 -7t44.5 -23t23 -41t6.5 -61z" />
    <glyph glyph-name="t_t_dotlessi.liga" unicode="tt&#x131;" horiz-adv-x="1832" 
d="M420 756v-419q0 -73 23 -109.5t82 -36.5q20 0 36 3.5t28.5 8t21 8t15.5 3.5q6 0 11.5 -3.5t8.5 -14t5.5 -28.5t2.5 -46q0 -44 -5.5 -68t-15 -33t-26.5 -16.5t-40.5 -13t-51 -8.5t-55.5 -3q-75 0 -130 19t-91 58.5t-53 99.5t-17 142v457h-107q-19 0 -29 23.5t-10 78.5
q0 29 2.5 49t7.5 31.5t12.5 16.5t17.5 5h106v199q0 10 5.5 18t20 13.5t39 8t60.5 2.5q37 0 61.5 -2.5t38.5 -8t20 -13.5t6 -18v-199h383v247q0 10 5.5 18t20 13t39 8t60.5 3q37 0 61.5 -3t38.5 -8t20 -13t6 -18v-247h576q42 0 59 -18t17 -52v-856q0 -10 -6 -17.5t-20 -12.5
t-38.5 -7.5t-60.5 -2.5q-37 0 -61.5 2.5t-38.5 7.5t-20 12.5t-6 17.5v722h-401v-419q0 -73 22.5 -109.5t82.5 -36.5q20 0 36 3.5t28 8t21 8t16 3.5q6 0 11 -3.5t8.5 -14t6 -28.5t2.5 -46q0 -44 -5.5 -68t-15 -33t-26.5 -16.5t-40.5 -13t-51 -8.5t-54.5 -3q-76 0 -131 19
t-91 58.5t-53 99.5t-17 142v457h-383z" />
    <glyph glyph-name=".notdef" horiz-adv-x="1038" 
d="M987 1294v-1294h-945v1294h945zM879 101v1092h-732v-1092h732zM780 845q0 -57 -16.5 -101t-46 -75t-71 -49t-90.5 -24l-5 -121q-1 -13 -22.5 -18.5t-58.5 -5.5q-23 0 -38.5 1t-25 3.5t-13.5 7t-4 12.5l-8 157q-3 40 12.5 55t45.5 15h13q37 0 62.5 10.5t41.5 28.5
t23.5 42.5t7.5 52.5q0 61 -37.5 98.5t-114.5 37.5q-35 0 -62 -6.5t-47 -14t-33 -14t-18 -6.5q-4 0 -8 2.5t-7 9.5t-4.5 20.5t-1.5 36.5q0 26 2.5 40t10.5 21q7 8 26.5 16.5t46.5 15.5t60 12t68 5q85 0 144.5 -21t96.5 -57t54 -84.5t17 -102.5zM574 284q0 -26 -5 -44.5
t-17 -30t-31.5 -16.5t-47.5 -5q-29 0 -48.5 5t-31.5 16.5t-17 30t-5 44.5q0 28 5 46.5t17 30.5t31.5 17t48.5 5q28 0 47.5 -5t31.5 -17t17 -30.5t5 -46.5zM0 -397z" />
    <glyph glyph-name="glyph1" horiz-adv-x="0" 
 />
    <glyph glyph-name="glyph2" horiz-adv-x="0" 
 />
    <glyph glyph-name="space" unicode=" " horiz-adv-x="463" 
 />
    <glyph glyph-name="space" unicode="&#xa0;" horiz-adv-x="463" 
 />
    <glyph glyph-name="A" unicode="A" horiz-adv-x="1241" 
d="M1201 98q12 -36 15 -57t-8 -31.5t-39 -13t-77 -2.5q-51 0 -79.5 1.5t-43.5 6t-21 12.5t-10 21l-87 260h-486l-82 -253q-4 -14 -10.5 -23.5t-21 -15t-41 -7.5t-69.5 -2q-46 0 -72 3t-36 14.5t-7 32.5t15 56l399 1148q6 17 14 27.5t25.5 16t48.5 7t82 1.5q59 0 94 -1.5
t54.5 -7t28 -16.5t14.5 -30zM607 1047h-1l-183 -550h367z" />
    <glyph glyph-name="Agrave" unicode="&#xc0;" horiz-adv-x="1241" 
d="M1201 98q12 -36 15 -57t-8 -31.5t-39 -13t-77 -2.5q-51 0 -79.5 1.5t-43.5 6t-21 12.5t-10 21l-87 260h-486l-82 -253q-4 -14 -10.5 -23.5t-21 -15t-41 -7.5t-69.5 -2q-46 0 -72 3t-36 14.5t-7 32.5t15 56l399 1148q6 17 14 27.5t25.5 16t48.5 7t82 1.5q59 0 94 -1.5
t54.5 -7t28 -16.5t14.5 -30zM607 1047h-1l-183 -550h367zM700 1439q11 -14 13.5 -24t-6.5 -16.5t-29 -9.5t-54 -3q-31 0 -52 2t-36 6.5t-25.5 11t-20.5 15.5l-222 200q-15 13 -19.5 25t5 21.5t35 15.5t71.5 6q37 0 61.5 -1.5t42 -6.5t30.5 -14t26 -24zM145 1294z" />
    <glyph glyph-name="Aacute" unicode="&#xc1;" horiz-adv-x="1241" 
d="M1201 98q12 -36 15 -57t-8 -31.5t-39 -13t-77 -2.5q-51 0 -79.5 1.5t-43.5 6t-21 12.5t-10 21l-87 260h-486l-82 -253q-4 -14 -10.5 -23.5t-21 -15t-41 -7.5t-69.5 -2q-46 0 -72 3t-36 14.5t-7 32.5t15 56l399 1148q6 17 14 27.5t25.5 16t48.5 7t82 1.5q59 0 94 -1.5
t54.5 -7t28 -16.5t14.5 -30zM607 1047h-1l-183 -550h367zM676 1643q13 15 25.5 24t30 14t42.5 6.5t62 1.5q46 0 71.5 -6t35 -15.5t4.5 -21.5t-19 -25l-222 -200q-10 -9 -20.5 -15.5t-25.5 -11t-36 -6.5t-52 -2q-34 0 -54.5 3t-29 9.5t-6.5 16.5t14 24zM379 1294z" />
    <glyph glyph-name="Acircumflex" unicode="&#xc2;" horiz-adv-x="1241" 
d="M1201 98q12 -36 15 -57t-8 -31.5t-39 -13t-77 -2.5q-51 0 -79.5 1.5t-43.5 6t-21 12.5t-10 21l-87 260h-486l-82 -253q-4 -14 -10.5 -23.5t-21 -15t-41 -7.5t-69.5 -2q-46 0 -72 3t-36 14.5t-7 32.5t15 56l399 1148q6 17 14 27.5t25.5 16t48.5 7t82 1.5q59 0 94 -1.5
t54.5 -7t28 -16.5t14.5 -30zM607 1047h-1l-183 -550h367zM626 1689q32 0 54 -1t37 -5.5t27 -12.5t25 -22l198 -214q13 -14 15.5 -23.5t-6 -15t-29.5 -7.5t-56 -2q-41 0 -67 1.5t-41.5 5t-24 9.5t-16.5 15l-118 137l-122 -134q-9 -11 -17.5 -17t-24 -10t-40.5 -5.5t-67 -1.5
q-34 0 -54 2.5t-28.5 8t-6.5 14.5t14 23l195 214q11 13 24 21t30.5 12.5t41.5 6t57 1.5zM162 1294z" />
    <glyph glyph-name="Atilde" unicode="&#xc3;" horiz-adv-x="1241" 
d="M1201 98q12 -36 15 -57t-8 -31.5t-39 -13t-77 -2.5q-51 0 -79.5 1.5t-43.5 6t-21 12.5t-10 21l-87 260h-486l-82 -253q-4 -14 -10.5 -23.5t-21 -15t-41 -7.5t-69.5 -2q-46 0 -72 3t-36 14.5t-7 32.5t15 56l399 1148q6 17 14 27.5t25.5 16t48.5 7t82 1.5q59 0 94 -1.5
t54.5 -7t28 -16.5t14.5 -30zM607 1047h-1l-183 -550h367zM828 1636q0 16 17 21t62 5t60.5 -7.5t15.5 -30.5q0 -115 -56.5 -175t-162.5 -60q-57 0 -96.5 15.5t-70.5 34t-56.5 34t-55.5 15.5q-34 0 -48.5 -19t-14.5 -54q0 -9 -4.5 -14t-14.5 -7.5t-24.5 -3.5t-35.5 -1
q-45 0 -60.5 7.5t-15.5 30.5q0 57 15 101t43.5 73.5t69 45t91.5 15.5q57 0 96.5 -15.5t70 -34.5t56.5 -34.5t56 -15.5q29 0 46 16.5t17 57.5zM166 1294z" />
    <glyph glyph-name="Adieresis" unicode="&#xc4;" horiz-adv-x="1241" 
d="M1201 98q12 -36 15 -57t-8 -31.5t-39 -13t-77 -2.5q-51 0 -79.5 1.5t-43.5 6t-21 12.5t-10 21l-87 260h-486l-82 -253q-4 -14 -10.5 -23.5t-21 -15t-41 -7.5t-69.5 -2q-46 0 -72 3t-36 14.5t-7 32.5t15 56l399 1148q6 17 14 27.5t25.5 16t48.5 7t82 1.5q59 0 94 -1.5
t54.5 -7t28 -16.5t14.5 -30zM607 1047h-1l-183 -550h367zM537 1534q0 -70 -27.5 -98t-104.5 -28t-104 27t-27 95q0 71 28 98.5t104 27.5q78 0 104.5 -26.5t26.5 -95.5zM974 1534q0 -70 -28 -98t-105 -28t-103.5 27t-26.5 95q0 71 27.5 98.5t104.5 27.5t104 -26.5t27 -95.5z
M172 1294z" />
    <glyph glyph-name="Amacron" unicode="&#x100;" horiz-adv-x="1241" 
d="M1201 98q12 -36 15 -57t-8 -31.5t-39 -13t-77 -2.5q-51 0 -79.5 1.5t-43.5 6t-21 12.5t-10 21l-87 260h-486l-82 -253q-4 -14 -10.5 -23.5t-21 -15t-41 -7.5t-69.5 -2q-46 0 -72 3t-36 14.5t-7 32.5t15 56l399 1148q6 17 14 27.5t25.5 16t48.5 7t82 1.5q59 0 94 -1.5
t54.5 -7t28 -16.5t14.5 -30zM607 1047h-1l-183 -550h367zM921 1616q11 0 18.5 -5t12.5 -15.5t7 -28.5t2 -44t-2 -43.5t-7 -28.5t-12.5 -15.5t-18.5 -4.5h-590q-12 0 -20.5 4.5t-13.5 15.5t-7.5 28.5t-2.5 43.5q0 25 2.5 43t7.5 29t13.5 16t20.5 5h590zM185 1294z" />
    <glyph glyph-name="Abreve" unicode="&#x102;" horiz-adv-x="1241" 
d="M1201 98q12 -36 15 -57t-8 -31.5t-39 -13t-77 -2.5q-51 0 -79.5 1.5t-43.5 6t-21 12.5t-10 21l-87 260h-486l-82 -253q-4 -14 -10.5 -23.5t-21 -15t-41 -7.5t-69.5 -2q-46 0 -72 3t-36 14.5t-7 32.5t15 56l399 1148q6 17 14 27.5t25.5 16t48.5 7t82 1.5q59 0 94 -1.5
t54.5 -7t28 -16.5t14.5 -30zM607 1047h-1l-183 -550h367zM924 1661q0 -63 -19 -114t-57 -87t-94.5 -55t-130.5 -19q-78 0 -134.5 20t-93 55.5t-54 86.5t-17.5 113q0 20 17.5 28t66.5 8q48 0 67.5 -7t21 -24.5t10 -43.5t24 -42.5t38.5 -25t56 -8.5q43 0 70.5 16.5t40.5 41.5
t15.5 49.5t19 34t65.5 9.5q51 0 69.5 -8t18.5 -28zM222 1294z" />
    <glyph glyph-name="Aring" unicode="&#xc5;" horiz-adv-x="1241" 
d="M1201 98q12 -36 15 -57t-8 -31.5t-39 -13t-77 -2.5q-51 0 -79.5 1.5t-43.5 6t-21 12.5t-10 21l-87 260h-486l-82 -253q-4 -14 -10.5 -23.5t-21 -15t-41 -7.5t-69.5 -2q-46 0 -72 3t-36 14.5t-7 32.5t15 56l399 1148q6 17 14 27.5t25.5 16t48.5 7t82 1.5q59 0 94 -1.5
t54.5 -7t28 -16.5t14.5 -30zM607 1047h-1l-183 -550h367zM862 1558q0 -48 -16.5 -86t-47 -63.5t-76 -39.5t-103.5 -14q-59 0 -102.5 13t-72.5 38t-43.5 61.5t-14.5 83.5q0 48 16 85.5t47 63.5t75.5 39.5t102.5 13.5q116 0 175.5 -49.5t59.5 -145.5zM709 1553q0 39 -20 63
t-67 24q-41 0 -62 -22t-21 -62q0 -42 20 -65t67 -23q42 0 62.5 23t20.5 62zM284 1294z" />
    <glyph glyph-name="Aringacute" unicode="&#x1fa;" horiz-adv-x="1241" 
d="M1201 98q12 -36 15 -57t-8 -31.5t-39 -13t-77 -2.5q-51 0 -79.5 1.5t-43.5 6t-21 12.5t-10 21l-87 260h-486l-82 -253q-4 -14 -10.5 -23.5t-21 -15t-41 -7.5t-69.5 -2q-46 0 -72 3t-36 14.5t-7 32.5t15 56l399 1148q6 17 14 27.5t25.5 16t48.5 7t82 1.5q59 0 94 -1.5
t54.5 -7t28 -16.5t14.5 -30zM607 1047h-1l-183 -550h367zM608 1915q10 10 20.5 17t25 11t35 5.5t50.5 1.5q44 0 69 -4.5t36 -11.5t9 -15.5t-11 -15.5l-205 -158q-9 -8 -18 -13.5t-21.5 -9t-29.5 -5.5t-44 -2q-33 0 -52.5 2.5t-27.5 8t-5.5 14t14.5 19.5zM836 1516
q0 -41 -15.5 -73.5t-45 -55.5t-72.5 -35.5t-98 -12.5q-56 0 -98.5 11.5t-71 33t-43 53.5t-14.5 72q0 41 15.5 73.5t45 55.5t73 35t99.5 12q55 0 97.5 -11t70.5 -33t42.5 -53.5t14.5 -71.5zM690 1510q0 17 -5 31t-15.5 24t-26.5 16t-38 6q-40 0 -60 -19.5t-20 -53.5
q0 -18 4.5 -32t14.5 -24t26 -15.5t39 -5.5q20 0 35 5t25 15t15.5 23.5t5.5 29.5zM282 1294z" />
    <glyph glyph-name="Aogonek" unicode="&#x104;" horiz-adv-x="1241" 
d="M1235 -260q0 -21 -2 -35.5t-7 -23.5t-13.5 -15t-34.5 -13.5t-46.5 -11t-43.5 -5t-51 -1.5q-52 0 -95 9t-74 29t-48 51t-17 75q0 18 4.5 36.5t14.5 38.5t26.5 42t42.5 48l52 52l-92 279h-486l-82 -253q-4 -14 -10.5 -23.5t-21 -15t-41 -7.5t-69.5 -2q-46 0 -72 3t-36 14.5
t-7 32.5t15 56l399 1148q6 17 14 27.5t25.5 16t48.5 7t82 1.5q59 0 94 -1.5t54.5 -7t28 -16t14.5 -30.5l392 -1129q8 -24 11.5 -40.5t-0.5 -31.5t-17 -32t-38 -42l-55 -55q-21 -21 -29.5 -36.5t-8.5 -32.5q0 -21 16.5 -31t54.5 -10h73q20 0 27.5 -12.5t7.5 -52.5zM607 1047
h-1l-183 -550h367z" />
    <glyph glyph-name="AE" unicode="&#xc6;" horiz-adv-x="1588" 
d="M1494 103q0 -29 -2.5 -48.5t-7.5 -31.5t-12 -17.5t-16 -5.5h-649q-33 0 -55 19.5t-22 63.5v198h-390l-118 -240q-6 -14 -14 -23.5t-24 -14.5t-43 -7t-72 -2q-32 0 -54 1t-35.5 5t-19 11t-5.5 18t5.5 27.5t18.5 43.5l570 1140q8 18 17.5 28.5t28 16.5t49.5 7.5t82 1.5h725
q9 0 16.5 -5t12.5 -17.5t7.5 -32t2.5 -49.5q0 -28 -2.5 -47.5t-7.5 -31.5t-12.5 -17.5t-16.5 -5.5h-461v-317h390q10 0 17.5 -5t12.5 -17t7.5 -31.5t2.5 -47.5q0 -29 -2.5 -48.5t-7.5 -31.5t-12.5 -17t-17.5 -5h-390v-362h466q9 0 16 -5.5t12 -17.5t7.5 -31.5t2.5 -48.5z
M730 1088h-5l-304 -606h309v606z" />
    <glyph glyph-name="AEacute" unicode="&#x1fc;" horiz-adv-x="1588" 
d="M1494 103q0 -29 -2.5 -48.5t-7.5 -31.5t-12 -17.5t-16 -5.5h-649q-33 0 -55 19.5t-22 63.5v198h-390l-118 -240q-6 -14 -14 -23.5t-24 -14.5t-43 -7t-72 -2q-32 0 -54 1t-35.5 5t-19 11t-5.5 18t5.5 27.5t18.5 43.5l570 1140q8 18 17.5 28.5t28 16.5t49.5 7.5t82 1.5h725
q9 0 16.5 -5t12.5 -17.5t7.5 -32t2.5 -49.5q0 -28 -2.5 -47.5t-7.5 -31.5t-12.5 -17.5t-16.5 -5.5h-461v-317h390q10 0 17.5 -5t12.5 -17t7.5 -31.5t2.5 -47.5q0 -29 -2.5 -48.5t-7.5 -31.5t-12.5 -17t-17.5 -5h-390v-362h466q9 0 16 -5.5t12 -17.5t7.5 -31.5t2.5 -48.5z
M730 1088h-5l-304 -606h309v606zM955 1643q13 15 25.5 24t30 14t42.5 6.5t62 1.5q46 0 71.5 -6t35 -15.5t4.5 -21.5t-19 -25l-222 -200q-10 -9 -20.5 -15.5t-25.5 -11t-36 -6.5t-52 -2q-34 0 -54.5 3t-29 9.5t-6.5 16.5t14 24zM658 1294z" />
    <glyph glyph-name="B" unicode="B" horiz-adv-x="1148" 
d="M1078 388q0 -69 -19 -125t-52.5 -99t-80 -74t-102.5 -51t-119.5 -29.5t-141.5 -9.5h-344q-33 0 -55.5 19.5t-22.5 63.5v1128q0 44 22.5 63.5t55.5 19.5h325q119 0 201.5 -20t139 -60.5t86.5 -102.5t30 -146q0 -47 -12 -88.5t-35 -75.5t-56.5 -60t-76.5 -42
q55 -10 101.5 -35t81 -64.5t54.5 -92.5t20 -119zM738 933q0 39 -12 70t-36 51.5t-60.5 31.5t-97.5 11h-133v-336h147q57 0 91 13.5t56.5 37t33.5 55t11 66.5zM805 379q0 45 -15 80.5t-44 59.5t-74 37t-117 13h-156v-368h190q55 0 92.5 11.5t65 34t43 56t15.5 76.5z" />
    <glyph glyph-name="C" unicode="C" horiz-adv-x="1084" 
d="M1036 196q0 -25 -1.5 -42.5t-4.5 -30t-8 -21.5t-16 -20.5t-42.5 -29.5t-77 -34.5t-104 -27.5t-126.5 -11q-133 0 -240 41t-182 122.5t-115 203.5t-40 284q0 165 44 293t123 215t189.5 132t243.5 45q54 0 104 -9t92.5 -23.5t76.5 -33.5t47.5 -32.5t18.5 -22.5t8 -23
t4.5 -33t1.5 -47q0 -30 -2 -51t-7 -34t-12 -19t-16 -6q-15 0 -38 17.5t-59.5 39t-87 39t-120.5 17.5q-77 0 -137.5 -31.5t-103 -90t-64.5 -141.5t-22 -187q0 -114 23.5 -197.5t67 -137.5t105 -80.5t138.5 -26.5q70 0 121 16.5t87.5 36.5t60 36t36.5 16q10 0 16 -4t10 -16
t6 -33.5t2 -57.5z" />
    <glyph glyph-name="Cacute" unicode="&#x106;" horiz-adv-x="1084" 
d="M1036 196q0 -25 -1.5 -42.5t-4.5 -30t-8 -21.5t-16 -20.5t-42.5 -29.5t-77 -34.5t-104 -27.5t-126.5 -11q-133 0 -240 41t-182 122.5t-115 203.5t-40 284q0 165 44 293t123 215t189.5 132t243.5 45q54 0 104 -9t92.5 -23.5t76.5 -33.5t47.5 -32.5t18.5 -22.5t8 -23
t4.5 -33t1.5 -47q0 -30 -2 -51t-7 -34t-12 -19t-16 -6q-15 0 -38 17.5t-59.5 39t-87 39t-120.5 17.5q-77 0 -137.5 -31.5t-103 -90t-64.5 -141.5t-22 -187q0 -114 23.5 -197.5t67 -137.5t105 -80.5t138.5 -26.5q70 0 121 16.5t87.5 36.5t60 36t36.5 16q10 0 16 -4t10 -16
t6 -33.5t2 -57.5zM687 1643q13 15 25.5 24t30 14t42.5 6.5t62 1.5q46 0 71.5 -6t35 -15.5t4.5 -21.5t-19 -25l-222 -200q-10 -9 -20.5 -15.5t-25.5 -11t-36 -6.5t-52 -2q-34 0 -54.5 3t-29 9.5t-6.5 16.5t14 24zM390 1294z" />
    <glyph glyph-name="Ccircumflex" unicode="&#x108;" horiz-adv-x="1084" 
d="M1036 196q0 -25 -1.5 -42.5t-4.5 -30t-8 -21.5t-16 -20.5t-42.5 -29.5t-77 -34.5t-104 -27.5t-126.5 -11q-133 0 -240 41t-182 122.5t-115 203.5t-40 284q0 165 44 293t123 215t189.5 132t243.5 45q54 0 104 -9t92.5 -23.5t76.5 -33.5t47.5 -32.5t18.5 -22.5t8 -23
t4.5 -33t1.5 -47q0 -30 -2 -51t-7 -34t-12 -19t-16 -6q-15 0 -38 17.5t-59.5 39t-87 39t-120.5 17.5q-77 0 -137.5 -31.5t-103 -90t-64.5 -141.5t-22 -187q0 -114 23.5 -197.5t67 -137.5t105 -80.5t138.5 -26.5q70 0 121 16.5t87.5 36.5t60 36t36.5 16q10 0 16 -4t10 -16
t6 -33.5t2 -57.5zM644 1689q32 0 54 -1t37 -5.5t27 -12.5t25 -22l198 -214q13 -14 15.5 -23.5t-6 -15t-29.5 -7.5t-56 -2q-41 0 -67 1.5t-41.5 5t-24 9.5t-16.5 15l-118 137l-122 -134q-9 -11 -17.5 -17t-24 -10t-40.5 -5.5t-67 -1.5q-34 0 -54 2.5t-28.5 8t-6.5 14.5t14 23
l195 214q11 13 24 21t30.5 12.5t41.5 6t57 1.5zM180 1294z" />
    <glyph glyph-name="Ccaron" unicode="&#x10c;" horiz-adv-x="1084" 
d="M1036 196q0 -25 -1.5 -42.5t-4.5 -30t-8 -21.5t-16 -20.5t-42.5 -29.5t-77 -34.5t-104 -27.5t-126.5 -11q-133 0 -240 41t-182 122.5t-115 203.5t-40 284q0 165 44 293t123 215t189.5 132t243.5 45q54 0 104 -9t92.5 -23.5t76.5 -33.5t47.5 -32.5t18.5 -22.5t8 -23
t4.5 -33t1.5 -47q0 -30 -2 -51t-7 -34t-12 -19t-16 -6q-15 0 -38 17.5t-59.5 39t-87 39t-120.5 17.5q-77 0 -137.5 -31.5t-103 -90t-64.5 -141.5t-22 -187q0 -114 23.5 -197.5t67 -137.5t105 -80.5t138.5 -26.5q70 0 121 16.5t87.5 36.5t60 36t36.5 16q10 0 16 -4t10 -16
t6 -33.5t2 -57.5zM629 1386q-32 0 -54 1t-37.5 5.5t-27 13t-24.5 21.5l-198 214q-13 15 -15.5 24.5t6 14.5t30 7t55.5 2q41 0 67 -1.5t41.5 -5t24 -9.5t16.5 -15l118 -137l123 135q8 10 16.5 16.5t24 10t40.5 5t67 1.5q34 0 54 -2.5t28.5 -8t6 -15t-13.5 -22.5l-195 -214
q-11 -13 -24 -21t-30.5 -12.5t-41 -6t-57.5 -1.5zM170 1294z" />
    <glyph glyph-name="Cdotaccent" unicode="&#x10a;" horiz-adv-x="1084" 
d="M1036 196q0 -25 -1.5 -42.5t-4.5 -30t-8 -21.5t-16 -20.5t-42.5 -29.5t-77 -34.5t-104 -27.5t-126.5 -11q-133 0 -240 41t-182 122.5t-115 203.5t-40 284q0 165 44 293t123 215t189.5 132t243.5 45q54 0 104 -9t92.5 -23.5t76.5 -33.5t47.5 -32.5t18.5 -22.5t8 -23
t4.5 -33t1.5 -47q0 -30 -2 -51t-7 -34t-12 -19t-16 -6q-15 0 -38 17.5t-59.5 39t-87 39t-120.5 17.5q-77 0 -137.5 -31.5t-103 -90t-64.5 -141.5t-22 -187q0 -114 23.5 -197.5t67 -137.5t105 -80.5t138.5 -26.5q70 0 121 16.5t87.5 36.5t60 36t36.5 16q10 0 16 -4t10 -16
t6 -33.5t2 -57.5zM797 1534q0 -71 -29.5 -99.5t-109.5 -28.5t-109 27.5t-29 95.5q0 72 30 100t110 28t108.5 -27t28.5 -96zM418 1294z" />
    <glyph glyph-name="Ccedilla" unicode="&#xc7;" horiz-adv-x="1084" 
d="M769 -66q18 -39 26.5 -68t8.5 -56q0 -46 -17 -79t-46 -54t-68 -31.5t-84 -10.5q-43 0 -81 6t-62.5 13t-35 12t-15 13t-6.5 20.5t-2 34.5q0 40 7.5 55.5t27.5 15.5h116q29 0 43.5 12.5t14.5 34.5q0 12 -5 27t-12 31l-34 77q-86 11 -167 48.5t-149.5 113t-109 197.5
t-40.5 284q0 165 44 293t123 215t189.5 132t243.5 45q54 0 104 -9t92.5 -23.5t76.5 -33.5t47.5 -32.5t18.5 -22.5t8 -23t4.5 -33t1.5 -47q0 -30 -2 -51t-7 -34t-12 -19t-16 -6q-15 0 -38 17.5t-59.5 39t-87 39t-120.5 17.5q-77 0 -137.5 -31.5t-103 -90t-64.5 -141.5
t-22 -187q0 -114 23.5 -197.5t67 -137.5t105 -80.5t138.5 -26.5q67 0 119 16t89 36.5t60.5 36.5t36.5 16q10 0 16 -4t10 -16t6 -33.5t2 -57.5q0 -25 -1.5 -42.5t-4.5 -30t-8 -21.5t-16 -20.5t-42.5 -29.5t-69.5 -33t-76 -23.5t-72 -11.5z" />
    <glyph glyph-name="D" unicode="D" horiz-adv-x="1291" 
d="M1216 666q0 -178 -46.5 -304.5t-133.5 -206.5t-211.5 -117.5t-296.5 -37.5h-309q-33 0 -55.5 19.5t-22.5 63.5v1128q0 44 22.5 63.5t55.5 19.5h332q173 0 293.5 -40.5t203 -120t125.5 -196.5t43 -271zM944 657q0 92 -21.5 171t-69 137t-122 90.5t-195.5 32.5h-133v-880
h137q108 0 182 28t123.5 84.5t74 140.5t24.5 196z" />
    <glyph glyph-name="Dcaron" unicode="&#x10e;" horiz-adv-x="1291" 
d="M1216 666q0 -178 -46.5 -304.5t-133.5 -206.5t-211.5 -117.5t-296.5 -37.5h-309q-33 0 -55.5 19.5t-22.5 63.5v1128q0 44 22.5 63.5t55.5 19.5h332q173 0 293.5 -40.5t203 -120t125.5 -196.5t43 -271zM944 657q0 92 -21.5 171t-69 137t-122 90.5t-195.5 32.5h-133v-880
h137q108 0 182 28t123.5 84.5t74 140.5t24.5 196zM615 1386q-32 0 -54 1t-37.5 5.5t-27 13t-24.5 21.5l-198 214q-13 15 -15.5 24.5t6 14.5t30 7t55.5 2q41 0 67 -1.5t41.5 -5t24 -9.5t16.5 -15l118 -137l123 135q8 10 16.5 16.5t24 10t40.5 5t67 1.5q34 0 54 -2.5t28.5 -8
t6 -15t-13.5 -22.5l-195 -214q-11 -13 -24 -21t-30.5 -12.5t-41 -6t-57.5 -1.5zM156 1294z" />
    <glyph glyph-name="Dcroat" unicode="&#x110;" horiz-adv-x="1309" 
d="M1235 666q0 -178 -46.5 -304.5t-134 -206.5t-212 -117.5t-296.5 -37.5h-309q-33 0 -55 19.5t-22 63.5v485h-106q-9 0 -16.5 4.5t-12.5 16t-7.5 31.5t-2.5 50q0 29 2.5 48.5t7.5 31t12.5 16.5t16.5 5h106v440q0 44 22 63.5t55 19.5h333q172 0 293 -40.5t203.5 -120
t125.5 -196.5t43 -271zM962 657q0 92 -21.5 171t-68.5 137t-122 90.5t-193 32.5h-135v-317h197q9 0 16.5 -5t12.5 -17t7.5 -31.5t2.5 -47.5q0 -29 -2.5 -48.5t-7.5 -31.5t-12.5 -17t-16.5 -5h-197v-360h137q108 0 181.5 28t123 84.5t74 140.5t24.5 196z" />
    <glyph glyph-name="Eth" unicode="&#xd0;" horiz-adv-x="1309" 
d="M1235 666q0 -178 -46.5 -304.5t-134 -206.5t-212 -117.5t-296.5 -37.5h-309q-33 0 -55 19.5t-22 63.5v485h-106q-9 0 -16.5 4.5t-12.5 16t-7.5 31.5t-2.5 50q0 29 2.5 48.5t7.5 31t12.5 16.5t16.5 5h106v440q0 44 22 63.5t55 19.5h333q172 0 293 -40.5t203.5 -120
t125.5 -196.5t43 -271zM962 657q0 92 -21.5 171t-68.5 137t-122 90.5t-193 32.5h-135v-317h197q9 0 16.5 -5t12.5 -17t7.5 -31.5t2.5 -47.5q0 -29 -2.5 -48.5t-7.5 -31.5t-12.5 -17t-16.5 -5h-197v-360h137q108 0 181.5 28t123 84.5t74 140.5t24.5 196z" />
    <glyph glyph-name="E" unicode="E" horiz-adv-x="999" 
d="M908 103q0 -29 -2.5 -48.5t-7.5 -31.5t-12.5 -17.5t-16.5 -5.5h-650q-33 0 -55.5 19.5t-22.5 63.5v1128q0 44 22.5 63.5t55.5 19.5h646q9 0 16 -5t12 -17.5t7.5 -32t2.5 -49.5q0 -28 -2.5 -47.5t-7.5 -31.5t-12 -17.5t-16 -5.5h-462v-316h391q9 0 16.5 -5.5t12.5 -17
t7.5 -31t2.5 -47.5q0 -29 -2.5 -48t-7.5 -30.5t-12.5 -16.5t-16.5 -5h-391v-365h466q9 0 16.5 -5.5t12.5 -17.5t7.5 -31.5t2.5 -48.5z" />
    <glyph glyph-name="Egrave" unicode="&#xc8;" horiz-adv-x="999" 
d="M908 103q0 -29 -2.5 -48.5t-7.5 -31.5t-12.5 -17.5t-16.5 -5.5h-650q-33 0 -55.5 19.5t-22.5 63.5v1128q0 44 22.5 63.5t55.5 19.5h646q9 0 16 -5t12 -17.5t7.5 -32t2.5 -49.5q0 -28 -2.5 -47.5t-7.5 -31.5t-12 -17.5t-16 -5.5h-462v-316h391q9 0 16.5 -5.5t12.5 -17
t7.5 -31t2.5 -47.5q0 -29 -2.5 -48t-7.5 -30.5t-12.5 -16.5t-16.5 -5h-391v-365h466q9 0 16.5 -5.5t12.5 -17.5t7.5 -31.5t2.5 -48.5zM618 1439q11 -14 13.5 -24t-6.5 -16.5t-29 -9.5t-54 -3q-31 0 -52 2t-36 6.5t-25.5 11t-20.5 15.5l-222 200q-15 13 -19.5 25t5 21.5
t35 15.5t71.5 6q37 0 61.5 -1.5t42 -6.5t30.5 -14t26 -24zM63 1294z" />
    <glyph glyph-name="Eacute" unicode="&#xc9;" horiz-adv-x="999" 
d="M908 103q0 -29 -2.5 -48.5t-7.5 -31.5t-12.5 -17.5t-16.5 -5.5h-650q-33 0 -55.5 19.5t-22.5 63.5v1128q0 44 22.5 63.5t55.5 19.5h646q9 0 16 -5t12 -17.5t7.5 -32t2.5 -49.5q0 -28 -2.5 -47.5t-7.5 -31.5t-12 -17.5t-16 -5.5h-462v-316h391q9 0 16.5 -5.5t12.5 -17
t7.5 -31t2.5 -47.5q0 -29 -2.5 -48t-7.5 -30.5t-12.5 -16.5t-16.5 -5h-391v-365h466q9 0 16.5 -5.5t12.5 -17.5t7.5 -31.5t2.5 -48.5zM600 1643q13 15 25.5 24t30 14t42.5 6.5t62 1.5q46 0 71.5 -6t35 -15.5t4.5 -21.5t-19 -25l-222 -200q-10 -9 -20.5 -15.5t-25.5 -11
t-36 -6.5t-52 -2q-34 0 -54.5 3t-29 9.5t-6.5 16.5t14 24zM303 1294z" />
    <glyph glyph-name="Ecircumflex" unicode="&#xca;" horiz-adv-x="999" 
d="M908 103q0 -29 -2.5 -48.5t-7.5 -31.5t-12.5 -17.5t-16.5 -5.5h-650q-33 0 -55.5 19.5t-22.5 63.5v1128q0 44 22.5 63.5t55.5 19.5h646q9 0 16 -5t12 -17.5t7.5 -32t2.5 -49.5q0 -28 -2.5 -47.5t-7.5 -31.5t-12 -17.5t-16 -5.5h-462v-316h391q9 0 16.5 -5.5t12.5 -17
t7.5 -31t2.5 -47.5q0 -29 -2.5 -48t-7.5 -30.5t-12.5 -16.5t-16.5 -5h-391v-365h466q9 0 16.5 -5.5t12.5 -17.5t7.5 -31.5t2.5 -48.5zM527 1689q32 0 54 -1t37 -5.5t27 -12.5t25 -22l198 -214q13 -14 15.5 -23.5t-6 -15t-29.5 -7.5t-56 -2q-41 0 -67 1.5t-41.5 5t-24 9.5
t-16.5 15l-118 137l-122 -134q-9 -11 -17.5 -17t-24 -10t-40.5 -5.5t-67 -1.5q-34 0 -54 2.5t-28.5 8t-6.5 14.5t14 23l195 214q11 13 24 21t30.5 12.5t41.5 6t57 1.5zM63 1294z" />
    <glyph glyph-name="Ecaron" unicode="&#x11a;" horiz-adv-x="999" 
d="M908 103q0 -29 -2.5 -48.5t-7.5 -31.5t-12.5 -17.5t-16.5 -5.5h-650q-33 0 -55.5 19.5t-22.5 63.5v1128q0 44 22.5 63.5t55.5 19.5h646q9 0 16 -5t12 -17.5t7.5 -32t2.5 -49.5q0 -28 -2.5 -47.5t-7.5 -31.5t-12 -17.5t-16 -5.5h-462v-316h391q9 0 16.5 -5.5t12.5 -17
t7.5 -31t2.5 -47.5q0 -29 -2.5 -48t-7.5 -30.5t-12.5 -16.5t-16.5 -5h-391v-365h466q9 0 16.5 -5.5t12.5 -17.5t7.5 -31.5t2.5 -48.5zM519 1386q-32 0 -54 1t-37.5 5.5t-27 13t-24.5 21.5l-198 214q-13 15 -15.5 24.5t6 14.5t30 7t55.5 2q41 0 67 -1.5t41.5 -5t24 -9.5
t16.5 -15l118 -137l123 135q8 10 16.5 16.5t24 10t40.5 5t67 1.5q34 0 54 -2.5t28.5 -8t6 -15t-13.5 -22.5l-195 -214q-11 -13 -24 -21t-30.5 -12.5t-41 -6t-57.5 -1.5zM60 1294z" />
    <glyph glyph-name="Edieresis" unicode="&#xcb;" horiz-adv-x="999" 
d="M908 103q0 -29 -2.5 -48.5t-7.5 -31.5t-12.5 -17.5t-16.5 -5.5h-650q-33 0 -55.5 19.5t-22.5 63.5v1128q0 44 22.5 63.5t55.5 19.5h646q9 0 16 -5t12 -17.5t7.5 -32t2.5 -49.5q0 -28 -2.5 -47.5t-7.5 -31.5t-12 -17.5t-16 -5.5h-462v-316h391q9 0 16.5 -5.5t12.5 -17
t7.5 -31t2.5 -47.5q0 -29 -2.5 -48t-7.5 -30.5t-12.5 -16.5t-16.5 -5h-391v-365h466q9 0 16.5 -5.5t12.5 -17.5t7.5 -31.5t2.5 -48.5zM442 1534q0 -70 -27.5 -98t-104.5 -28t-104 27t-27 95q0 71 28 98.5t104 27.5q78 0 104.5 -26.5t26.5 -95.5zM879 1534q0 -70 -28 -98
t-105 -28t-103.5 27t-26.5 95q0 71 27.5 98.5t104.5 27.5t104 -26.5t27 -95.5zM77 1294z" />
    <glyph glyph-name="Emacron" unicode="&#x112;" horiz-adv-x="999" 
d="M908 103q0 -29 -2.5 -48.5t-7.5 -31.5t-12.5 -17.5t-16.5 -5.5h-650q-33 0 -55.5 19.5t-22.5 63.5v1128q0 44 22.5 63.5t55.5 19.5h646q9 0 16 -5t12 -17.5t7.5 -32t2.5 -49.5q0 -28 -2.5 -47.5t-7.5 -31.5t-12 -17.5t-16 -5.5h-462v-316h391q9 0 16.5 -5.5t12.5 -17
t7.5 -31t2.5 -47.5q0 -29 -2.5 -48t-7.5 -30.5t-12.5 -16.5t-16.5 -5h-391v-365h466q9 0 16.5 -5.5t12.5 -17.5t7.5 -31.5t2.5 -48.5zM821 1616q11 0 18.5 -5t12.5 -15.5t7 -28.5t2 -44t-2 -43.5t-7 -28.5t-12.5 -15.5t-18.5 -4.5h-590q-12 0 -20.5 4.5t-13.5 15.5
t-7.5 28.5t-2.5 43.5q0 25 2.5 43t7.5 29t13.5 16t20.5 5h590zM85 1294z" />
    <glyph glyph-name="Ebreve" unicode="&#x114;" horiz-adv-x="999" 
d="M908 103q0 -29 -2.5 -48.5t-7.5 -31.5t-12.5 -17.5t-16.5 -5.5h-650q-33 0 -55.5 19.5t-22.5 63.5v1128q0 44 22.5 63.5t55.5 19.5h646q9 0 16 -5t12 -17.5t7.5 -32t2.5 -49.5q0 -28 -2.5 -47.5t-7.5 -31.5t-12 -17.5t-16 -5.5h-462v-316h391q9 0 16.5 -5.5t12.5 -17
t7.5 -31t2.5 -47.5q0 -29 -2.5 -48t-7.5 -30.5t-12.5 -16.5t-16.5 -5h-391v-365h466q9 0 16.5 -5.5t12.5 -17.5t7.5 -31.5t2.5 -48.5zM819 1661q0 -63 -19 -114t-57 -87t-94.5 -55t-130.5 -19q-78 0 -134.5 20t-93 55.5t-54 86.5t-17.5 113q0 20 17.5 28t66.5 8
q48 0 67.5 -7t21 -24.5t10 -43.5t24 -42.5t38.5 -25t56 -8.5q43 0 70.5 16.5t40.5 41.5t15.5 49.5t19 34t65.5 9.5q51 0 69.5 -8t18.5 -28zM117 1294z" />
    <glyph glyph-name="Edotaccent" unicode="&#x116;" horiz-adv-x="999" 
d="M908 103q0 -29 -2.5 -48.5t-7.5 -31.5t-12.5 -17.5t-16.5 -5.5h-650q-33 0 -55.5 19.5t-22.5 63.5v1128q0 44 22.5 63.5t55.5 19.5h646q9 0 16 -5t12 -17.5t7.5 -32t2.5 -49.5q0 -28 -2.5 -47.5t-7.5 -31.5t-12 -17.5t-16 -5.5h-462v-316h391q9 0 16.5 -5.5t12.5 -17
t7.5 -31t2.5 -47.5q0 -29 -2.5 -48t-7.5 -30.5t-12.5 -16.5t-16.5 -5h-391v-365h466q9 0 16.5 -5.5t12.5 -17.5t7.5 -31.5t2.5 -48.5zM669 1534q0 -71 -29.5 -99.5t-109.5 -28.5t-109 27.5t-29 95.5q0 72 30 100t110 28t108.5 -27t28.5 -96zM290 1294z" />
    <glyph glyph-name="Eogonek" unicode="&#x118;" horiz-adv-x="999" 
d="M940 -259q0 -22 -2 -36t-6.5 -23t-12 -14.5t-32.5 -13t-63.5 -13.5t-88.5 -6q-54 0 -96.5 10t-72 30.5t-45.5 51.5t-16 74q0 37 17.5 74.5t57.5 78.5l47 46h-408q-33 0 -55.5 19.5t-22.5 63.5v1128q0 44 22.5 63.5t55.5 19.5h646q9 0 16 -5t12 -17.5t7.5 -32t2.5 -49.5
q0 -28 -2.5 -47.5t-7.5 -31.5t-12 -17.5t-16 -5.5h-462v-316h391q9 0 16.5 -5t12.5 -16.5t7.5 -30.5t2.5 -47q0 -29 -2.5 -48.5t-7.5 -31.5t-12.5 -17t-16.5 -5h-391v-365h466q19 0 29 -21t10 -71q0 -25 -1 -42t-5 -31t-12.5 -26t-23.5 -26l-76 -75q-18 -20 -26 -36t-8 -31
q0 -21 16 -31.5t54 -10.5h79q10 0 16.5 -2.5t10.5 -9.5t6 -20t2 -32z" />
    <glyph glyph-name="F" unicode="F" horiz-adv-x="940" 
d="M867 1186q0 -30 -2.5 -50.5t-8 -32.5t-12.5 -18t-16 -6h-423v-348h397q9 0 16 -5t12.5 -17t8 -32t2.5 -50t-2.5 -50t-8 -33t-12.5 -18.5t-16 -5.5h-397v-482q0 -11 -6 -19t-21.5 -13.5t-40.5 -8.5t-64 -3q-38 0 -63.5 3t-40.5 8.5t-21.5 13.5t-6.5 19v1173
q0 44 22.5 63.5t55.5 19.5h609q9 0 16 -5.5t12.5 -18t8 -33.5t2.5 -51z" />
    <glyph glyph-name="G" unicode="G" horiz-adv-x="1305" 
d="M1179 1093q0 -29 -2.5 -50t-7 -33.5t-11 -17.5t-15.5 -5q-13 0 -42 18t-77 39t-114.5 39t-154.5 18q-94 0 -170 -32.5t-130 -92t-83 -143t-29 -184.5q0 -111 29.5 -195.5t82.5 -141.5t127.5 -86t164.5 -29q44 0 87 10t80 30v300h-245q-18 0 -28 22.5t-10 76.5
q0 28 2.5 47t7.5 30.5t12 17t16 5.5h437q16 0 28.5 -5.5t22 -16.5t14.5 -26.5t5 -35.5v-515q0 -30 -10.5 -52.5t-43 -35.5t-80.5 -27t-99.5 -24t-104 -15t-105.5 -5q-155 0 -277.5 44.5t-207.5 129t-130 206t-45 275.5q0 159 48 285.5t136 215t212.5 135.5t277.5 47
q84 0 153 -11.5t120.5 -28t85.5 -35.5t47.5 -33t19.5 -39.5t6 -75.5z" />
    <glyph glyph-name="Gcircumflex" unicode="&#x11c;" horiz-adv-x="1305" 
d="M1179 1093q0 -29 -2.5 -50t-7 -33.5t-11 -17.5t-15.5 -5q-13 0 -42 18t-77 39t-114.5 39t-154.5 18q-94 0 -170 -32.5t-130 -92t-83 -143t-29 -184.5q0 -111 29.5 -195.5t82.5 -141.5t127.5 -86t164.5 -29q44 0 87 10t80 30v300h-245q-18 0 -28 22.5t-10 76.5
q0 28 2.5 47t7.5 30.5t12 17t16 5.5h437q16 0 28.5 -5.5t22 -16.5t14.5 -26.5t5 -35.5v-515q0 -30 -10.5 -52.5t-43 -35.5t-80.5 -27t-99.5 -24t-104 -15t-105.5 -5q-155 0 -277.5 44.5t-207.5 129t-130 206t-45 275.5q0 159 48 285.5t136 215t212.5 135.5t277.5 47
q84 0 153 -11.5t120.5 -28t85.5 -35.5t47.5 -33t19.5 -39.5t6 -75.5zM694 1689q32 0 54 -1t37 -5.5t27 -12.5t25 -22l198 -214q13 -14 15.5 -23.5t-6 -15t-29.5 -7.5t-56 -2q-41 0 -67 1.5t-41.5 5t-24 9.5t-16.5 15l-118 137l-122 -134q-9 -11 -17.5 -17t-24 -10
t-40.5 -5.5t-67 -1.5q-34 0 -54 2.5t-28.5 8t-6.5 14.5t14 23l195 214q11 13 24 21t30.5 12.5t41.5 6t57 1.5zM230 1294z" />
    <glyph glyph-name="Gbreve" unicode="&#x11e;" horiz-adv-x="1305" 
d="M1179 1093q0 -29 -2.5 -50t-7 -33.5t-11 -17.5t-15.5 -5q-13 0 -42 18t-77 39t-114.5 39t-154.5 18q-94 0 -170 -32.5t-130 -92t-83 -143t-29 -184.5q0 -111 29.5 -195.5t82.5 -141.5t127.5 -86t164.5 -29q44 0 87 10t80 30v300h-245q-18 0 -28 22.5t-10 76.5
q0 28 2.5 47t7.5 30.5t12 17t16 5.5h437q16 0 28.5 -5.5t22 -16.5t14.5 -26.5t5 -35.5v-515q0 -30 -10.5 -52.5t-43 -35.5t-80.5 -27t-99.5 -24t-104 -15t-105.5 -5q-155 0 -277.5 44.5t-207.5 129t-130 206t-45 275.5q0 159 48 285.5t136 215t212.5 135.5t277.5 47
q84 0 153 -11.5t120.5 -28t85.5 -35.5t47.5 -33t19.5 -39.5t6 -75.5zM991 1661q0 -63 -19 -114t-57 -87t-94.5 -55t-130.5 -19q-78 0 -134.5 20t-93 55.5t-54 86.5t-17.5 113q0 20 17.5 28t66.5 8q48 0 67.5 -7t21 -24.5t10 -43.5t24 -42.5t38.5 -25t56 -8.5q43 0 70.5 16.5
t40.5 41.5t15.5 49.5t19 34t65.5 9.5q51 0 69.5 -8t18.5 -28zM289 1294z" />
    <glyph glyph-name="Gdotaccent" unicode="&#x120;" horiz-adv-x="1305" 
d="M1179 1093q0 -29 -2.5 -50t-7 -33.5t-11 -17.5t-15.5 -5q-13 0 -42 18t-77 39t-114.5 39t-154.5 18q-94 0 -170 -32.5t-130 -92t-83 -143t-29 -184.5q0 -111 29.5 -195.5t82.5 -141.5t127.5 -86t164.5 -29q44 0 87 10t80 30v300h-245q-18 0 -28 22.5t-10 76.5
q0 28 2.5 47t7.5 30.5t12 17t16 5.5h437q16 0 28.5 -5.5t22 -16.5t14.5 -26.5t5 -35.5v-515q0 -30 -10.5 -52.5t-43 -35.5t-80.5 -27t-99.5 -24t-104 -15t-105.5 -5q-155 0 -277.5 44.5t-207.5 129t-130 206t-45 275.5q0 159 48 285.5t136 215t212.5 135.5t277.5 47
q84 0 153 -11.5t120.5 -28t85.5 -35.5t47.5 -33t19.5 -39.5t6 -75.5zM867 1534q0 -71 -29.5 -99.5t-109.5 -28.5t-109 27.5t-29 95.5q0 72 30 100t110 28t108.5 -27t28.5 -96zM488 1294z" />
    <glyph glyph-name="Gcommaaccent" unicode="&#x122;" horiz-adv-x="1305" 
d="M1179 1093q0 -29 -2.5 -50t-7 -33.5t-11 -17.5t-15.5 -5q-13 0 -42 18t-77 39t-114.5 39t-154.5 18q-94 0 -170 -32.5t-130 -92t-83 -143t-29 -184.5q0 -111 29.5 -195.5t82.5 -141.5t127.5 -86t164.5 -29q44 0 87 10t80 30v300h-245q-18 0 -28 22.5t-10 76.5
q0 28 2.5 47t7.5 30.5t12 17t16 5.5h437q16 0 28.5 -5.5t22 -16.5t14.5 -26.5t5 -35.5v-515q0 -30 -10.5 -52.5t-43 -35.5t-80.5 -27t-99.5 -24t-104 -15t-105.5 -5q-155 0 -277.5 44.5t-207.5 129t-130 206t-45 275.5q0 159 48 285.5t136 215t212.5 135.5t277.5 47
q84 0 153 -11.5t120.5 -28t85.5 -35.5t47.5 -33t19.5 -39.5t6 -75.5zM559 -123q3 11 11 19.5t23.5 13.5t41 7t65.5 2t63 -4t33.5 -11.5t10 -18.5t-7.5 -25l-98 -190q-5 -10 -12 -16.5t-19.5 -11t-33 -6t-52.5 -1.5t-50.5 2.5t-27 9t-8.5 16.5t4 24z" />
    <glyph glyph-name="H" unicode="H" horiz-adv-x="1292" 
d="M1151 36q0 -10 -6.5 -18t-21.5 -13t-40 -8t-63 -3q-39 0 -64.5 3t-40 8t-21 13t-6.5 18v523h-484v-523q0 -10 -6 -18t-21 -13t-40 -8t-64 -3q-38 0 -63.5 3t-40.5 8t-21.5 13t-6.5 18v1222q0 10 6.5 18t21.5 13t40.5 8t63.5 3q39 0 64 -3t40 -8t21 -13t6 -18v-475h484
v475q0 10 6.5 18t21 13t40 8t64.5 3q38 0 63 -3t40 -8t21.5 -13t6.5 -18v-1222z" />
    <glyph glyph-name="Hcircumflex" unicode="&#x124;" horiz-adv-x="1292" 
d="M1151 36q0 -10 -6.5 -18t-21.5 -13t-40 -8t-63 -3q-39 0 -64.5 3t-40 8t-21 13t-6.5 18v523h-484v-523q0 -10 -6 -18t-21 -13t-40 -8t-64 -3q-38 0 -63.5 3t-40.5 8t-21.5 13t-6.5 18v1222q0 10 6.5 18t21.5 13t40.5 8t63.5 3q39 0 64 -3t40 -8t21 -13t6 -18v-475h484
v475q0 10 6.5 18t21 13t40 8t64.5 3q38 0 63 -3t40 -8t21.5 -13t6.5 -18v-1222zM646 1689q32 0 54 -1t37 -5.5t27 -12.5t25 -22l198 -214q13 -14 15.5 -23.5t-6 -15t-29.5 -7.5t-56 -2q-41 0 -67 1.5t-41.5 5t-24 9.5t-16.5 15l-118 137l-122 -134q-9 -11 -17.5 -17t-24 -10
t-40.5 -5.5t-67 -1.5q-34 0 -54 2.5t-28.5 8t-6.5 14.5t14 23l195 214q11 13 24 21t30.5 12.5t41.5 6t57 1.5zM182 1294z" />
    <glyph glyph-name="Hbar" unicode="&#x126;" horiz-adv-x="1347" 
d="M432 907v-177h484v177h-484zM1178 1092h115q9 0 16.5 -3.5t12.5 -14t7.5 -28t2.5 -46.5t-2.5 -47t-7.5 -28.5t-12.5 -14t-16.5 -3.5h-115v-873q0 -10 -6 -17.5t-21 -12.5t-40.5 -7.5t-62.5 -2.5q-39 0 -64 2.5t-40.5 7.5t-21.5 12.5t-6 17.5v490h-484v-490
q0 -10 -6.5 -17.5t-21.5 -12.5t-40 -7.5t-63 -2.5t-63.5 2.5t-40.5 7.5t-21.5 12.5t-6.5 17.5v873h-114q-10 0 -17 3.5t-12 14t-7.5 28t-2.5 46.5q0 28 2.5 46t7.5 28.5t12 14.5t17 4h114v168q0 10 6.5 17.5t21.5 12.5t40.5 7.5t63.5 2.5t63 -2.5t40 -7.5t21.5 -12.5
t6.5 -17.5v-168h484v168q0 10 6 17.5t21.5 12.5t40.5 7.5t64 2.5q37 0 62.5 -2.5t40.5 -7.5t21 -12.5t6 -17.5v-168z" />
    <glyph glyph-name="I" unicode="I" horiz-adv-x="546" 
d="M405 36q0 -10 -6.5 -18t-21.5 -13t-40 -8t-64 -3q-38 0 -63.5 3t-40.5 8t-21.5 13t-6.5 18v1222q0 10 6.5 18t22 13t40.5 8t63 3q39 0 64 -3t40 -8t21.5 -13t6.5 -18v-1222z" />
    <glyph glyph-name="Igrave" unicode="&#xcc;" horiz-adv-x="546" 
d="M405 36q0 -10 -6.5 -18t-21.5 -13t-40 -8t-64 -3q-38 0 -63.5 3t-40.5 8t-21.5 13t-6.5 18v1222q0 10 6.5 18t22 13t40.5 8t63 3q39 0 64 -3t40 -8t21.5 -13t6.5 -18v-1222zM389 1439q11 -14 13.5 -24t-6.5 -16.5t-29 -9.5t-54 -3q-31 0 -52 2t-36 6.5t-25.5 11
t-20.5 15.5l-222 200q-15 13 -19.5 25t5 21.5t35 15.5t71.5 6q37 0 61.5 -1.5t42 -6.5t30.5 -14t26 -24zM-166 1294z" />
    <glyph glyph-name="Iacute" unicode="&#xcd;" horiz-adv-x="546" 
d="M405 36q0 -10 -6.5 -18t-21.5 -13t-40 -8t-64 -3q-38 0 -63.5 3t-40.5 8t-21.5 13t-6.5 18v1222q0 10 6.5 18t22 13t40.5 8t63 3q39 0 64 -3t40 -8t21.5 -13t6.5 -18v-1222zM335 1643q13 15 25.5 24t30 14t42.5 6.5t62 1.5q46 0 71.5 -6t35 -15.5t4.5 -21.5t-19 -25
l-222 -200q-10 -9 -20.5 -15.5t-25.5 -11t-36 -6.5t-52 -2q-34 0 -54.5 3t-29 9.5t-6.5 16.5t14 24zM38 1294z" />
    <glyph glyph-name="Icircumflex" unicode="&#xce;" horiz-adv-x="546" 
d="M405 36q0 -10 -6.5 -18t-21.5 -13t-40 -8t-64 -3q-38 0 -63.5 3t-40.5 8t-21.5 13t-6.5 18v1222q0 10 6.5 18t22 13t40.5 8t63 3q39 0 64 -3t40 -8t21.5 -13t6.5 -18v-1222zM276 1689q32 0 54 -1t37 -5.5t27 -12.5t25 -22l198 -214q13 -14 15.5 -23.5t-6 -15t-29.5 -7.5
t-56 -2q-41 0 -67 1.5t-41.5 5t-24 9.5t-16.5 15l-118 137l-122 -134q-9 -11 -17.5 -17t-24 -10t-40.5 -5.5t-67 -1.5q-34 0 -54 2.5t-28.5 8t-6.5 14.5t14 23l195 214q11 13 24 21t30.5 12.5t41.5 6t57 1.5zM-188 1294z" />
    <glyph glyph-name="Itilde" unicode="&#x128;" horiz-adv-x="546" 
d="M405 36q0 -10 -6.5 -18t-21.5 -13t-40 -8t-64 -3q-38 0 -63.5 3t-40.5 8t-21.5 13t-6.5 18v1222q0 10 6.5 18t22 13t40.5 8t63 3q39 0 64 -3t40 -8t21.5 -13t6.5 -18v-1222zM478 1636q0 16 17 21t62 5t60.5 -7.5t15.5 -30.5q0 -115 -56.5 -175t-162.5 -60
q-57 0 -96.5 15.5t-70.5 34t-56.5 34t-55.5 15.5q-34 0 -48.5 -19t-14.5 -54q0 -9 -4.5 -14t-14.5 -7.5t-24.5 -3.5t-35.5 -1q-45 0 -60.5 7.5t-15.5 30.5q0 57 15 101t43.5 73.5t69 45t91.5 15.5q57 0 96.5 -15.5t70 -34.5t56.5 -34.5t56 -15.5q29 0 46 16.5t17 57.5z
M-184 1294z" />
    <glyph glyph-name="Idieresis" unicode="&#xcf;" horiz-adv-x="546" 
d="M405 36q0 -10 -6.5 -18t-21.5 -13t-40 -8t-64 -3q-38 0 -63.5 3t-40.5 8t-21.5 13t-6.5 18v1222q0 10 6.5 18t22 13t40.5 8t63 3q39 0 64 -3t40 -8t21.5 -13t6.5 -18v-1222zM187 1534q0 -70 -27.5 -98t-104.5 -28t-104 27t-27 95q0 71 28 98.5t104 27.5q78 0 104.5 -26.5
t26.5 -95.5zM624 1534q0 -70 -28 -98t-105 -28t-103.5 27t-26.5 95q0 71 27.5 98.5t104.5 27.5t104 -26.5t27 -95.5zM-178 1294z" />
    <glyph glyph-name="Imacron" unicode="&#x12a;" horiz-adv-x="546" 
d="M405 36q0 -10 -6.5 -18t-21.5 -13t-40 -8t-64 -3q-38 0 -63.5 3t-40.5 8t-21.5 13t-6.5 18v1222q0 10 6.5 18t22 13t40.5 8t63 3q39 0 64 -3t40 -8t21.5 -13t6.5 -18v-1222zM571 1616q11 0 18.5 -5t12.5 -15.5t7 -28.5t2 -44t-2 -43.5t-7 -28.5t-12.5 -15.5t-18.5 -4.5
h-590q-12 0 -20.5 4.5t-13.5 15.5t-7.5 28.5t-2.5 43.5q0 25 2.5 43t7.5 29t13.5 16t20.5 5h590zM-165 1294z" />
    <glyph glyph-name="Ibreve" unicode="&#x12c;" horiz-adv-x="546" 
d="M405 36q0 -10 -6.5 -18t-21.5 -13t-40 -8t-64 -3q-38 0 -63.5 3t-40.5 8t-21.5 13t-6.5 18v1222q0 10 6.5 18t22 13t40.5 8t63 3q39 0 64 -3t40 -8t21.5 -13t6.5 -18v-1222zM574 1661q0 -63 -19 -114t-57 -87t-94.5 -55t-130.5 -19q-78 0 -134.5 20t-93 55.5t-54 86.5
t-17.5 113q0 20 17.5 28t66.5 8q48 0 67.5 -7t21 -24.5t10 -43.5t24 -42.5t38.5 -25t56 -8.5q43 0 70.5 16.5t40.5 41.5t15.5 49.5t19 34t65.5 9.5q51 0 69.5 -8t18.5 -28zM-128 1294z" />
    <glyph glyph-name="Idotaccent" unicode="&#x130;" horiz-adv-x="546" 
d="M405 36q0 -10 -6.5 -18t-21.5 -13t-40 -8t-64 -3q-38 0 -63.5 3t-40.5 8t-21.5 13t-6.5 18v1222q0 10 6.5 18t22 13t40.5 8t63 3q39 0 64 -3t40 -8t21.5 -13t6.5 -18v-1222zM413 1534q0 -71 -29.5 -99.5t-109.5 -28.5t-109 27.5t-29 95.5q0 72 30 100t110 28t108.5 -27
t28.5 -96zM34 1294z" />
    <glyph glyph-name="Iogonek" unicode="&#x12e;" horiz-adv-x="546" 
d="M463 -260q0 -21 -2 -35t-6.5 -23t-12 -14t-17.5 -8q-38 -13 -80.5 -19t-88.5 -6q-107 0 -166.5 39.5t-59.5 120.5q0 20 3.5 39t12 38.5t23.5 40.5t38 44l49 49q-5 4 -10 10t-5 15v1229q0 10 6.5 17.5t22 12.5t40.5 7.5t63 2.5q39 0 64 -2.5t40 -7.5t21.5 -12.5t6.5 -17.5
v-1229q0 -14 -5 -25t-16 -22l-62 -62q-26 -25 -35 -42t-9 -33q0 -21 16 -31.5t47 -10.5h87q20 0 27.5 -12.5t7.5 -52.5z" />
    <glyph glyph-name="IJ" unicode="&#x132;" horiz-adv-x="1225" 
d="M405 36q0 -10 -6.5 -18t-21.5 -13t-40 -8t-64 -3q-38 0 -63.5 3t-40.5 8t-21.5 13t-6.5 18v1222q0 10 6.5 18t22 13t40.5 8t63 3q39 0 64 -3t40 -8t21.5 -13t6.5 -18v-1222zM1086 360q0 -88 -16.5 -158.5t-56 -120t-103.5 -75.5t-158 -26q-30 0 -59.5 4.5t-54 11.5
t-42.5 15t-24 14.5t-10 13.5t-7 18.5t-4 28.5t-1 43q0 34 1.5 57.5t5 37t10 19t16.5 5.5q9 0 21 -6.5t27 -13.5t35 -13.5t47 -6.5t47.5 7.5t34 26t20.5 49.5t7 80v889q0 10 6.5 17.5t21 12.5t40.5 7.5t64 2.5t63 -2.5t40.5 -7.5t22 -12.5t6.5 -17.5v-900z" />
    <glyph glyph-name="J" unicode="J" horiz-adv-x="678" 
d="M539 360q0 -88 -16.5 -158.5t-56 -120t-103.5 -75.5t-158 -26q-30 0 -59.5 4.5t-54 11.5t-42.5 15t-24 14.5t-10 13.5t-7 18.5t-4 28.5t-1 43q0 34 1.5 57.5t5 37t10 19t16.5 5.5q9 0 21 -6.5t27 -13.5t35 -13.5t47 -6.5t47.5 7.5t34 26t20.5 49.5t7 80v889
q0 10 6.5 17.5t21 12.5t40.5 7.5t64 2.5t63 -2.5t40.5 -7.5t22 -12.5t6.5 -17.5v-900z" />
    <glyph glyph-name="Jcircumflex" unicode="&#x134;" horiz-adv-x="678" 
d="M539 360q0 -88 -16.5 -158.5t-56 -120t-103.5 -75.5t-158 -26q-30 0 -59.5 4.5t-54 11.5t-42.5 15t-24 14.5t-10 13.5t-7 18.5t-4 28.5t-1 43q0 34 1.5 57.5t5 37t10 19t16.5 5.5q9 0 21 -6.5t27 -13.5t35 -13.5t47 -6.5t47.5 7.5t34 26t20.5 49.5t7 80v889
q0 10 6.5 17.5t21 12.5t40.5 7.5t64 2.5t63 -2.5t40.5 -7.5t22 -12.5t6.5 -17.5v-900zM383 1689q32 0 54 -1t37 -5.5t27 -12.5t25 -22l198 -214q13 -14 15.5 -23.5t-6 -15t-29.5 -7.5t-56 -2q-41 0 -67 1.5t-41.5 5t-24 9.5t-16.5 15l-118 137l-122 -134q-9 -11 -17.5 -17
t-24 -10t-40.5 -5.5t-67 -1.5q-34 0 -54 2.5t-28.5 8t-6.5 14.5t14 23l195 214q11 13 24 21t30.5 12.5t41.5 6t57 1.5zM-81 1294z" />
    <glyph glyph-name="K" unicode="K" horiz-adv-x="1120" 
d="M1086 39q0 -11 -5.5 -19.5t-21 -14t-42.5 -8.5t-68 -3q-65 0 -93.5 5t-41 15t-19.5 24l-391 614v-614q0 -11 -6 -19t-21 -13.5t-40 -8.5t-64 -3q-38 0 -63.5 3t-40.5 8.5t-21.5 13.5t-6.5 19v1219q0 11 6.5 19t21.5 13t40.5 8t63.5 3q39 0 64 -3t40 -8t21 -13t6 -19v-551
l379 550q7 13 17 21.5t26 13.5t41 7t64 2q40 0 66 -3t41.5 -8.5t21.5 -13.5t6 -18q0 -17 -9 -35t-34 -57l-355 -465l387 -585q22 -41 26.5 -54.5t4.5 -21.5z" />
    <glyph glyph-name="Kcommaaccent" unicode="&#x136;" horiz-adv-x="1120" 
d="M1086 39q0 -11 -5.5 -19.5t-21 -14t-42.5 -8.5t-68 -3q-65 0 -93.5 5t-41 15t-19.5 24l-391 614v-614q0 -11 -6 -19t-21 -13.5t-40 -8.5t-64 -3q-38 0 -63.5 3t-40.5 8.5t-21.5 13.5t-6.5 19v1219q0 11 6.5 19t21.5 13t40.5 8t63.5 3q39 0 64 -3t40 -8t21 -13t6 -19v-551
l379 550q7 13 17 21.5t26 13.5t41 7t64 2q40 0 66 -3t41.5 -8.5t21.5 -13.5t6 -18q0 -17 -9 -35t-34 -57l-355 -465l387 -585q22 -41 26.5 -54.5t4.5 -21.5zM460 -123q3 11 11 19.5t23.5 13.5t41 7t65.5 2t63 -4t33.5 -11.5t10 -18.5t-7.5 -25l-98 -190q-5 -10 -12 -16.5
t-19.5 -11t-33 -6t-52.5 -1.5t-50.5 2.5t-27 9t-8.5 16.5t4 24z" />
    <glyph glyph-name="L" unicode="L" horiz-adv-x="866" 
d="M852 110q0 -30 -2.5 -50.5t-7.5 -34t-12.5 -19.5t-17.5 -6h-593q-33 0 -55.5 19.5t-22.5 63.5v1175q0 10 6.5 18t21.5 13t40.5 8t63.5 3q39 0 64 -3t40 -8t21.5 -13t6.5 -18v-1041h407q10 0 17.5 -5.5t12.5 -18t7.5 -33t2.5 -50.5z" />
    <glyph glyph-name="Lacute" unicode="&#x139;" horiz-adv-x="866" 
d="M852 110q0 -30 -2.5 -50.5t-7.5 -34t-12.5 -19.5t-17.5 -6h-593q-33 0 -55.5 19.5t-22.5 63.5v1175q0 10 6.5 18t21.5 13t40.5 8t63.5 3q39 0 64 -3t40 -8t21.5 -13t6.5 -18v-1041h407q10 0 17.5 -5.5t12.5 -18t7.5 -33t2.5 -50.5zM411 1643q13 15 25.5 24t30 14
t42.5 6.5t62 1.5q46 0 71.5 -6t35 -15.5t4.5 -21.5t-19 -25l-222 -200q-10 -9 -20.5 -15.5t-25.5 -11t-36 -6.5t-52 -2q-34 0 -54.5 3t-29 9.5t-6.5 16.5t14 24zM114 1294z" />
    <glyph glyph-name="Lcaron" unicode="&#x13d;" horiz-adv-x="881" 
d="M852 110q0 -30 -2.5 -50.5t-7.5 -34t-12.5 -19.5t-17.5 -6h-593q-33 0 -55.5 19.5t-22.5 63.5v1175q0 10 6.5 18t21.5 13t40.5 8t63.5 3q39 0 64 -3t40 -8t21.5 -13t6.5 -18v-1041h407q10 0 17.5 -5.5t12.5 -18t7.5 -33t2.5 -50.5zM601 1327q3 12 10.5 20.5t21.5 14.5
t36 9t55 3q36 0 57.5 -3.5t31.5 -9.5t10.5 -15.5t-3.5 -21.5l-124 -314q-4 -11 -11 -17.5t-20 -10t-32 -5t-48 -1.5q-23 0 -36.5 2.5t-20 7.5t-7.5 14t2 22zM418 960z" />
    <glyph glyph-name="Lcommaaccent" unicode="&#x13b;" horiz-adv-x="866" 
d="M852 110q0 -30 -2.5 -50.5t-7.5 -34t-12.5 -19.5t-17.5 -6h-593q-33 0 -55.5 19.5t-22.5 63.5v1175q0 10 6.5 18t21.5 13t40.5 8t63.5 3q39 0 64 -3t40 -8t21.5 -13t6.5 -18v-1041h407q10 0 17.5 -5.5t12.5 -18t7.5 -33t2.5 -50.5zM365 -123q3 11 11 19.5t23.5 13.5t41 7
t65.5 2t63 -4t33.5 -11.5t10 -18.5t-7.5 -25l-98 -190q-5 -10 -12 -16.5t-19.5 -11t-33 -6t-52.5 -1.5t-50.5 2.5t-27 9t-8.5 16.5t4 24z" />
    <glyph glyph-name="Lslash" unicode="&#x141;" horiz-adv-x="886" 
d="M871 110q0 -30 -2.5 -50.5t-8 -34t-13 -19.5t-17.5 -6h-593q-33 0 -55 19.5t-22 63.5v399l-98 -63q-21 -13 -31 7.5t-10 80.5q0 29 1.5 48t6 33t11.5 22.5t18 15.5l102 65v569q0 10 6 17.5t21.5 12.5t40.5 7.5t64 2.5q38 0 63.5 -2.5t40.5 -7.5t21.5 -12.5t6.5 -17.5
v-404l191 120q22 14 31.5 -7t9.5 -81q0 -28 -1.5 -47.5t-5.5 -33t-11.5 -22.5t-18.5 -16l-195 -122v-430h406q10 0 17.5 -5.5t13 -18t8 -33t2.5 -50.5z" />
    <glyph glyph-name="Ldot" unicode="&#x13f;" horiz-adv-x="1150" 
d="M852 110q0 -30 -2.5 -50.5t-7.5 -34t-12.5 -19.5t-17.5 -6h-593q-33 0 -55.5 19.5t-22.5 63.5v1175q0 10 6.5 18t21.5 13t40.5 8t63.5 3q39 0 64 -3t40 -8t21.5 -13t6.5 -18v-1041h407q10 0 17.5 -5.5t12.5 -18t7.5 -33t2.5 -50.5zM1044 670q0 -93 -32.5 -125.5
t-116.5 -32.5t-116 32t-32 120q0 93 32.5 125.5t117.5 32.5q83 0 115 -32t32 -120z" />
    <glyph glyph-name="M" unicode="M" horiz-adv-x="1790" 
d="M1649 36q0 -10 -5.5 -18t-20 -13t-38.5 -8t-61 -3q-36 0 -60 3t-38 8t-20 13t-6 18v1053h-2l-375 -1052q-4 -13 -13 -21.5t-24.5 -13.5t-39.5 -6.5t-58 -1.5t-58 2.5t-39.5 8t-24.5 13.5t-12 19l-362 1052h-2v-1053q0 -10 -5.5 -18t-20.5 -13t-38.5 -8t-60.5 -3
q-36 0 -60 3t-38.5 8t-20 13t-5.5 18v1153q0 51 27 78t72 27h172q46 0 79 -7.5t57 -25t40 -46t28 -70.5l280 -771h4l290 769q13 42 28.5 71t36 47t48.5 25.5t65 7.5h177q27 0 46.5 -7t32 -20.5t19 -33t6.5 -44.5v-1153z" />
    <glyph glyph-name="N" unicode="N" horiz-adv-x="1349" 
d="M1208 92q0 -23 -8 -41t-21.5 -30t-32 -17.5t-37.5 -5.5h-112q-35 0 -60.5 7t-47 25.5t-41.5 50t-45 81.5l-322 605q-28 54 -57 116.5t-52 121.5h-2q4 -72 6 -143.5t2 -147.5v-677q0 -10 -5.5 -18t-19 -13.5t-36.5 -8.5t-59 -3q-35 0 -58 3t-36 8.5t-18 13.5t-5 18v1163
q0 47 27.5 70.5t67.5 23.5h141q38 0 64 -6.5t46.5 -21.5t38.5 -41.5t37 -65.5l252 -473q22 -43 43.5 -84.5t41.5 -83t39 -81.5t37 -80h1q-3 70 -4.5 146t-1.5 145v607q0 10 6 18t20 14t37 8.5t59 2.5q34 0 57 -2.5t35.5 -8.5t17.5 -14t5 -18v-1163z" />
    <glyph glyph-name="Nacute" unicode="&#x143;" horiz-adv-x="1349" 
d="M1208 92q0 -23 -8 -41t-21.5 -30t-32 -17.5t-37.5 -5.5h-112q-35 0 -60.5 7t-47 25.5t-41.5 50t-45 81.5l-322 605q-28 54 -57 116.5t-52 121.5h-2q4 -72 6 -143.5t2 -147.5v-677q0 -10 -5.5 -18t-19 -13.5t-36.5 -8.5t-59 -3q-35 0 -58 3t-36 8.5t-18 13.5t-5 18v1163
q0 47 27.5 70.5t67.5 23.5h141q38 0 64 -6.5t46.5 -21.5t38.5 -41.5t37 -65.5l252 -473q22 -43 43.5 -84.5t41.5 -83t39 -81.5t37 -80h1q-3 70 -4.5 146t-1.5 145v607q0 10 6 18t20 14t37 8.5t59 2.5q34 0 57 -2.5t35.5 -8.5t17.5 -14t5 -18v-1163zM772 1643q13 15 25.5 24
t30 14t42.5 6.5t62 1.5q46 0 71.5 -6t35 -15.5t4.5 -21.5t-19 -25l-222 -200q-10 -9 -20.5 -15.5t-25.5 -11t-36 -6.5t-52 -2q-34 0 -54.5 3t-29 9.5t-6.5 16.5t14 24zM475 1294z" />
    <glyph glyph-name="Ncaron" unicode="&#x147;" horiz-adv-x="1349" 
d="M1208 92q0 -23 -8 -41t-21.5 -30t-32 -17.5t-37.5 -5.5h-112q-35 0 -60.5 7t-47 25.5t-41.5 50t-45 81.5l-322 605q-28 54 -57 116.5t-52 121.5h-2q4 -72 6 -143.5t2 -147.5v-677q0 -10 -5.5 -18t-19 -13.5t-36.5 -8.5t-59 -3q-35 0 -58 3t-36 8.5t-18 13.5t-5 18v1163
q0 47 27.5 70.5t67.5 23.5h141q38 0 64 -6.5t46.5 -21.5t38.5 -41.5t37 -65.5l252 -473q22 -43 43.5 -84.5t41.5 -83t39 -81.5t37 -80h1q-3 70 -4.5 146t-1.5 145v607q0 10 6 18t20 14t37 8.5t59 2.5q34 0 57 -2.5t35.5 -8.5t17.5 -14t5 -18v-1163zM678 1386q-32 0 -54 1
t-37.5 5.5t-27 13t-24.5 21.5l-198 214q-13 15 -15.5 24.5t6 14.5t30 7t55.5 2q41 0 67 -1.5t41.5 -5t24 -9.5t16.5 -15l118 -137l123 135q8 10 16.5 16.5t24 10t40.5 5t67 1.5q34 0 54 -2.5t28.5 -8t6 -15t-13.5 -22.5l-195 -214q-11 -13 -24 -21t-30.5 -12.5t-41 -6
t-57.5 -1.5zM219 1294z" />
    <glyph glyph-name="Ntilde" unicode="&#xd1;" horiz-adv-x="1349" 
d="M1208 92q0 -23 -8 -41t-21.5 -30t-32 -17.5t-37.5 -5.5h-112q-35 0 -60.5 7t-47 25.5t-41.5 50t-45 81.5l-322 605q-28 54 -57 116.5t-52 121.5h-2q4 -72 6 -143.5t2 -147.5v-677q0 -10 -5.5 -18t-19 -13.5t-36.5 -8.5t-59 -3q-35 0 -58 3t-36 8.5t-18 13.5t-5 18v1163
q0 47 27.5 70.5t67.5 23.5h141q38 0 64 -6.5t46.5 -21.5t38.5 -41.5t37 -65.5l252 -473q22 -43 43.5 -84.5t41.5 -83t39 -81.5t37 -80h1q-3 70 -4.5 146t-1.5 145v607q0 10 6 18t20 14t37 8.5t59 2.5q34 0 57 -2.5t35.5 -8.5t17.5 -14t5 -18v-1163zM878 1636q0 16 17 21
t62 5t60.5 -7.5t15.5 -30.5q0 -115 -56.5 -175t-162.5 -60q-57 0 -96.5 15.5t-70.5 34t-56.5 34t-55.5 15.5q-34 0 -48.5 -19t-14.5 -54q0 -9 -4.5 -14t-14.5 -7.5t-24.5 -3.5t-35.5 -1q-45 0 -60.5 7.5t-15.5 30.5q0 57 15 101t43.5 73.5t69 45t91.5 15.5q57 0 96.5 -15.5
t70 -34.5t56.5 -34.5t56 -15.5q29 0 46 16.5t17 57.5zM216 1294z" />
    <glyph glyph-name="Ncommaaccent" unicode="&#x145;" horiz-adv-x="1349" 
d="M1208 92q0 -23 -8 -41t-21.5 -30t-32 -17.5t-37.5 -5.5h-112q-35 0 -60.5 7t-47 25.5t-41.5 50t-45 81.5l-322 605q-28 54 -57 116.5t-52 121.5h-2q4 -72 6 -143.5t2 -147.5v-677q0 -10 -5.5 -18t-19 -13.5t-36.5 -8.5t-59 -3q-35 0 -58 3t-36 8.5t-18 13.5t-5 18v1163
q0 47 27.5 70.5t67.5 23.5h141q38 0 64 -6.5t46.5 -21.5t38.5 -41.5t37 -65.5l252 -473q22 -43 43.5 -84.5t41.5 -83t39 -81.5t37 -80h1q-3 70 -4.5 146t-1.5 145v607q0 10 6 18t20 14t37 8.5t59 2.5q34 0 57 -2.5t35.5 -8.5t17.5 -14t5 -18v-1163zM529 -123q3 11 11 19.5
t23.5 13.5t41 7t65.5 2t63 -4t33.5 -11.5t10 -18.5t-7.5 -25l-98 -190q-5 -10 -12 -16.5t-19.5 -11t-33 -6t-52.5 -1.5t-50.5 2.5t-27 9t-8.5 16.5t4 24z" />
    <glyph glyph-name="Eng" unicode="&#x14a;" horiz-adv-x="1313" 
d="M1172 -7q0 -79 -17.5 -145t-55.5 -113.5t-99 -73.5t-148 -26q-29 0 -54 2.5t-45.5 7t-35.5 11t-22.5 14.5t-11.5 29t-4 61q0 28 1.5 46t5.5 28.5t9 14.5t13 4t15.5 -3t18 -6.5t26 -6.5t41.5 -3q25 0 44 7t31.5 23t19 41t6.5 61v34l-403 703q-34 60 -68 123t-64 126h-1
q4 -87 5.5 -176t1.5 -176v-566q0 -10 -5.5 -17.5t-19 -12.5t-36.5 -7.5t-58 -2.5t-58.5 2.5t-37.5 7.5t-19.5 12.5t-5.5 17.5v1166q0 47 24.5 70.5t64.5 23.5h137q26 0 45.5 -5t35.5 -15.5t29.5 -27.5t27.5 -41l277 -481q41 -72 80.5 -146.5t75.5 -147.5h2q-5 80 -6.5 162.5
t-1.5 163.5v502q0 10 5.5 17.5t19.5 12.5t36.5 7.5t58.5 2.5q34 0 57.5 -2.5t37.5 -7.5t19.5 -12.5t5.5 -17.5v-1265z" />
    <glyph glyph-name="O" unicode="O" horiz-adv-x="1385" 
d="M1305 662q0 -161 -40 -288t-119 -215.5t-195.5 -135t-269.5 -46.5q-151 0 -263.5 39.5t-187.5 120.5t-112.5 206t-37.5 296q0 157 40 282.5t119 213.5t195.5 135t270.5 47q147 0 259.5 -39t188 -120t114 -204.5t38.5 -291.5zM1029 648q0 102 -16 185.5t-54.5 143
t-102.5 92t-160 32.5q-97 0 -162 -36.5t-105 -97.5t-56.5 -142.5t-16.5 -172.5q0 -106 16 -190.5t54 -144.5t102 -91.5t161 -31.5t162 36t105 98t56.5 144.5t16.5 175.5z" />
    <glyph glyph-name="Ograve" unicode="&#xd2;" horiz-adv-x="1385" 
d="M1305 662q0 -161 -40 -288t-119 -215.5t-195.5 -135t-269.5 -46.5q-151 0 -263.5 39.5t-187.5 120.5t-112.5 206t-37.5 296q0 157 40 282.5t119 213.5t195.5 135t270.5 47q147 0 259.5 -39t188 -120t114 -204.5t38.5 -291.5zM1029 648q0 102 -16 185.5t-54.5 143
t-102.5 92t-160 32.5q-97 0 -162 -36.5t-105 -97.5t-56.5 -142.5t-16.5 -172.5q0 -106 16 -190.5t54 -144.5t102 -91.5t161 -31.5t162 36t105 98t56.5 144.5t16.5 175.5zM796 1439q11 -14 13.5 -24t-6.5 -16.5t-29 -9.5t-54 -3q-31 0 -52 2t-36 6.5t-25.5 11t-20.5 15.5
l-222 200q-15 13 -19.5 25t5 21.5t35 15.5t71.5 6q37 0 61.5 -1.5t42 -6.5t30.5 -14t26 -24zM241 1294z" />
    <glyph glyph-name="Oacute" unicode="&#xd3;" horiz-adv-x="1385" 
d="M1305 662q0 -161 -40 -288t-119 -215.5t-195.5 -135t-269.5 -46.5q-151 0 -263.5 39.5t-187.5 120.5t-112.5 206t-37.5 296q0 157 40 282.5t119 213.5t195.5 135t270.5 47q147 0 259.5 -39t188 -120t114 -204.5t38.5 -291.5zM1029 648q0 102 -16 185.5t-54.5 143
t-102.5 92t-160 32.5q-97 0 -162 -36.5t-105 -97.5t-56.5 -142.5t-16.5 -172.5q0 -106 16 -190.5t54 -144.5t102 -91.5t161 -31.5t162 36t105 98t56.5 144.5t16.5 175.5zM758 1643q13 15 25.5 24t30 14t42.5 6.5t62 1.5q46 0 71.5 -6t35 -15.5t4.5 -21.5t-19 -25l-222 -200
q-10 -9 -20.5 -15.5t-25.5 -11t-36 -6.5t-52 -2q-34 0 -54.5 3t-29 9.5t-6.5 16.5t14 24zM461 1294z" />
    <glyph glyph-name="Ocircumflex" unicode="&#xd4;" horiz-adv-x="1385" 
d="M1305 662q0 -161 -40 -288t-119 -215.5t-195.5 -135t-269.5 -46.5q-151 0 -263.5 39.5t-187.5 120.5t-112.5 206t-37.5 296q0 157 40 282.5t119 213.5t195.5 135t270.5 47q147 0 259.5 -39t188 -120t114 -204.5t38.5 -291.5zM1029 648q0 102 -16 185.5t-54.5 143
t-102.5 92t-160 32.5q-97 0 -162 -36.5t-105 -97.5t-56.5 -142.5t-16.5 -172.5q0 -106 16 -190.5t54 -144.5t102 -91.5t161 -31.5t162 36t105 98t56.5 144.5t16.5 175.5zM697 1689q32 0 54 -1t37 -5.5t27 -12.5t25 -22l198 -214q13 -14 15.5 -23.5t-6 -15t-29.5 -7.5t-56 -2
q-41 0 -67 1.5t-41.5 5t-24 9.5t-16.5 15l-118 137l-122 -134q-9 -11 -17.5 -17t-24 -10t-40.5 -5.5t-67 -1.5q-34 0 -54 2.5t-28.5 8t-6.5 14.5t14 23l195 214q11 13 24 21t30.5 12.5t41.5 6t57 1.5zM233 1294z" />
    <glyph glyph-name="Otilde" unicode="&#xd5;" horiz-adv-x="1385" 
d="M1305 662q0 -161 -40 -288t-119 -215.5t-195.5 -135t-269.5 -46.5q-151 0 -263.5 39.5t-187.5 120.5t-112.5 206t-37.5 296q0 157 40 282.5t119 213.5t195.5 135t270.5 47q147 0 259.5 -39t188 -120t114 -204.5t38.5 -291.5zM1029 648q0 102 -16 185.5t-54.5 143
t-102.5 92t-160 32.5q-97 0 -162 -36.5t-105 -97.5t-56.5 -142.5t-16.5 -172.5q0 -106 16 -190.5t54 -144.5t102 -91.5t161 -31.5t162 36t105 98t56.5 144.5t16.5 175.5zM899 1636q0 16 17 21t62 5t60.5 -7.5t15.5 -30.5q0 -115 -56.5 -175t-162.5 -60q-57 0 -96.5 15.5
t-70.5 34t-56.5 34t-55.5 15.5q-34 0 -48.5 -19t-14.5 -54q0 -9 -4.5 -14t-14.5 -7.5t-24.5 -3.5t-35.5 -1q-45 0 -60.5 7.5t-15.5 30.5q0 57 15 101t43.5 73.5t69 45t91.5 15.5q57 0 96.5 -15.5t70 -34.5t56.5 -34.5t56 -15.5q29 0 46 16.5t17 57.5zM237 1294z" />
    <glyph glyph-name="Odieresis" unicode="&#xd6;" horiz-adv-x="1385" 
d="M1305 662q0 -161 -40 -288t-119 -215.5t-195.5 -135t-269.5 -46.5q-151 0 -263.5 39.5t-187.5 120.5t-112.5 206t-37.5 296q0 157 40 282.5t119 213.5t195.5 135t270.5 47q147 0 259.5 -39t188 -120t114 -204.5t38.5 -291.5zM1029 648q0 102 -16 185.5t-54.5 143
t-102.5 92t-160 32.5q-97 0 -162 -36.5t-105 -97.5t-56.5 -142.5t-16.5 -172.5q0 -106 16 -190.5t54 -144.5t102 -91.5t161 -31.5t162 36t105 98t56.5 144.5t16.5 175.5zM608 1534q0 -70 -27.5 -98t-104.5 -28t-104 27t-27 95q0 71 28 98.5t104 27.5q78 0 104.5 -26.5
t26.5 -95.5zM1045 1534q0 -70 -28 -98t-105 -28t-103.5 27t-26.5 95q0 71 27.5 98.5t104.5 27.5t104 -26.5t27 -95.5zM243 1294z" />
    <glyph glyph-name="Omacron" unicode="&#x14c;" horiz-adv-x="1385" 
d="M1305 662q0 -161 -40 -288t-119 -215.5t-195.5 -135t-269.5 -46.5q-151 0 -263.5 39.5t-187.5 120.5t-112.5 206t-37.5 296q0 157 40 282.5t119 213.5t195.5 135t270.5 47q147 0 259.5 -39t188 -120t114 -204.5t38.5 -291.5zM1029 648q0 102 -16 185.5t-54.5 143
t-102.5 92t-160 32.5q-97 0 -162 -36.5t-105 -97.5t-56.5 -142.5t-16.5 -172.5q0 -106 16 -190.5t54 -144.5t102 -91.5t161 -31.5t162 36t105 98t56.5 144.5t16.5 175.5zM992 1616q11 0 18.5 -5t12.5 -15.5t7 -28.5t2 -44t-2 -43.5t-7 -28.5t-12.5 -15.5t-18.5 -4.5h-590
q-12 0 -20.5 4.5t-13.5 15.5t-7.5 28.5t-2.5 43.5q0 25 2.5 43t7.5 29t13.5 16t20.5 5h590zM256 1294z" />
    <glyph glyph-name="Obreve" unicode="&#x14e;" horiz-adv-x="1385" 
d="M1305 662q0 -161 -40 -288t-119 -215.5t-195.5 -135t-269.5 -46.5q-151 0 -263.5 39.5t-187.5 120.5t-112.5 206t-37.5 296q0 157 40 282.5t119 213.5t195.5 135t270.5 47q147 0 259.5 -39t188 -120t114 -204.5t38.5 -291.5zM1029 648q0 102 -16 185.5t-54.5 143
t-102.5 92t-160 32.5q-97 0 -162 -36.5t-105 -97.5t-56.5 -142.5t-16.5 -172.5q0 -106 16 -190.5t54 -144.5t102 -91.5t161 -31.5t162 36t105 98t56.5 144.5t16.5 175.5zM994 1661q0 -63 -19 -114t-57 -87t-94.5 -55t-130.5 -19q-78 0 -134.5 20t-93 55.5t-54 86.5
t-17.5 113q0 20 17.5 28t66.5 8q48 0 67.5 -7t21 -24.5t10 -43.5t24 -42.5t38.5 -25t56 -8.5q43 0 70.5 16.5t40.5 41.5t15.5 49.5t19 34t65.5 9.5q51 0 69.5 -8t18.5 -28zM292 1294z" />
    <glyph glyph-name="Ohungarumlaut" unicode="&#x150;" horiz-adv-x="1385" 
d="M1305 662q0 -161 -40 -288t-119 -215.5t-195.5 -135t-269.5 -46.5q-151 0 -263.5 39.5t-187.5 120.5t-112.5 206t-37.5 296q0 157 40 282.5t119 213.5t195.5 135t270.5 47q147 0 259.5 -39t188 -120t114 -204.5t38.5 -291.5zM1029 648q0 102 -16 185.5t-54.5 143
t-102.5 92t-160 32.5q-97 0 -162 -36.5t-105 -97.5t-56.5 -142.5t-16.5 -172.5q0 -106 16 -190.5t54 -144.5t102 -91.5t161 -31.5t162 36t105 98t56.5 144.5t16.5 175.5zM581 1409q-8 -8 -17 -12.5t-22.5 -7t-32.5 -3t-47 -0.5q-53 0 -69.5 11t-1.5 32l163 232q7 10 18 16.5
t28.5 11t42 6.5t57.5 2q54 0 84.5 -3.5t42.5 -10t8.5 -16.5t-16.5 -22zM1014 1411q-10 -9 -19.5 -14t-23 -7.5t-33.5 -3t-50 -0.5t-50 2.5t-30.5 7.5t-11.5 12.5t6 16.5l183 236q6 9 16.5 15.5t28 11.5t44.5 7t69 2q48 0 77 -3.5t41.5 -11t10 -17t-15.5 -21.5zM281 1294z
" />
    <glyph glyph-name="Oslash" unicode="&#xd8;" horiz-adv-x="1394" 
d="M1314 662q0 -161 -40.5 -288t-120 -215.5t-197 -135t-271.5 -46.5q-53 0 -101.5 6.5t-87.5 18.5l-95 -194q-4 -8 -12 -14t-21.5 -9.5t-33.5 -5.5t-48 -2q-36 0 -58.5 4t-33 11.5t-11.5 17.5t5 23l118 241q-55 38 -97.5 91t-71 122.5t-43 157t-14.5 194.5q0 157 40 282.5
t119.5 213.5t197 135t272.5 47q52 0 97.5 -6.5t92.5 -19.5l91 188q4 8 12 13.5t21.5 9.5t34 6t48.5 2q36 0 58 -4t33 -11.5t11.5 -17.5t-5.5 -23l-115 -236q55 -39 97.5 -92.5t71 -122.5t43 -154t14.5 -187zM1048 654q0 100 -20 181t-63 142l-377 -770q24 -9 50 -14t59 -5
q100 0 167 35.5t108 98.5t58.5 148t17.5 184zM808 1088q-24 10 -50.5 15t-60.5 5q-101 0 -168 -36.5t-107.5 -99t-57.5 -145.5t-17 -176q0 -104 19 -189t63 -145z" />
    <glyph glyph-name="Oslashacute" unicode="&#x1fe;" horiz-adv-x="1394" 
d="M1314 662q0 -161 -40.5 -288t-120 -215.5t-197 -135t-271.5 -46.5q-53 0 -101.5 6.5t-87.5 18.5l-95 -194q-4 -8 -12 -14t-21.5 -9.5t-33.5 -5.5t-48 -2q-36 0 -58.5 4t-33 11.5t-11.5 17.5t5 23l118 241q-55 38 -97.5 91t-71 122.5t-43 157t-14.5 194.5q0 157 40 282.5
t119.5 213.5t197 135t272.5 47q52 0 97.5 -6.5t92.5 -19.5l91 188q4 8 12 13.5t21.5 9.5t34 6t48.5 2q36 0 58 -4t33 -11.5t11.5 -17.5t-5.5 -23l-115 -236q55 -39 97.5 -92.5t71 -122.5t43 -154t14.5 -187zM1048 654q0 100 -20 181t-63 142l-377 -770q24 -9 50 -14t59 -5
q100 0 167 35.5t108 98.5t58.5 148t17.5 184zM808 1088q-24 10 -50.5 15t-60.5 5q-101 0 -168 -36.5t-107.5 -99t-57.5 -145.5t-17 -176q0 -104 19 -189t63 -145zM656 1643q13 15 25.5 24t30 14t42.5 6.5t62 1.5q46 0 71.5 -6t35 -15.5t4.5 -21.5t-19 -25l-222 -200
q-10 -9 -20.5 -15.5t-25.5 -11t-36 -6.5t-52 -2q-34 0 -54.5 3t-29 9.5t-6.5 16.5t14 24zM359 1294z" />
    <glyph glyph-name="OE" unicode="&#x152;" horiz-adv-x="1790" 
d="M1697 103q0 -29 -2.5 -48.5t-7.5 -31.5t-12.5 -17.5t-16.5 -5.5h-634q-20 0 -37 8.5t-23 29.5q-56 -30 -128 -45.5t-155 -15.5q-151 0 -263.5 38.5t-187.5 119.5t-112.5 206.5t-37.5 298.5q0 157 40 282.5t119 213t195.5 134.5t270.5 47q74 0 142 -15t116 -38
q9 17 24.5 23.5t34.5 6.5h632q9 0 16 -5t12 -17.5t7.5 -32t2.5 -49.5q0 -28 -2.5 -47.5t-7.5 -31.5t-12 -17.5t-16 -5.5h-462v-317h392q8 0 15.5 -5t12.5 -17t7.5 -31.5t2.5 -47.5q0 -29 -2.5 -48.5t-7.5 -31.5t-12.5 -17t-15.5 -5h-392v-362h466q9 0 16.5 -5.5t12.5 -17.5
t7.5 -31.5t2.5 -48.5zM930 1031q-52 35 -109 52.5t-125 17.5q-97 0 -162 -36t-105 -97t-56.5 -142.5t-16.5 -171.5q0 -107 16 -192t54 -145t102 -91.5t161 -31.5q71 0 130.5 19t110.5 57v761z" />
    <glyph glyph-name="P" unicode="P" horiz-adv-x="1090" 
d="M1027 901q0 -109 -34 -193t-99 -141.5t-159.5 -87.5t-222.5 -30h-108v-413q0 -10 -6.5 -18t-21.5 -13t-40 -8t-64 -3q-38 0 -63.5 3t-40.5 8t-21 13t-6 18v1164q0 47 24.5 70.5t64.5 23.5h305q46 0 87.5 -3.5t99.5 -15t117.5 -42.5t101.5 -78.5t64 -111t22 -142.5z
M752 882q0 68 -24 112t-59 65t-73.5 26.5t-79.5 5.5h-112v-439h118q63 0 105.5 17t69.5 47.5t41 73t14 92.5z" />
    <glyph glyph-name="Thorn" unicode="&#xde;" horiz-adv-x="1090" 
d="M1027 695q0 -110 -33.5 -194t-98 -141.5t-157.5 -87.5t-213 -30h-121v-212q0 -10 -6.5 -17.5t-21.5 -12.5t-40 -7t-64 -2q-38 0 -63.5 2t-40.5 7t-21 12.5t-6 17.5v1232q0 10 6 17.5t21 12.5t40.5 7.5t63.5 2.5q39 0 64 -2.5t40 -7.5t21.5 -12.5t6.5 -17.5v-175h131
q46 0 88 -3.5t84 -11.5q74 -14 133.5 -45.5t101 -79t63.5 -111t22 -141.5zM752 675q0 76 -33 127t-99 70q-23 8 -48.5 10t-53.5 2h-114v-438h135q54 0 94 17t66 47t39.5 72.5t13.5 92.5z" />
    <glyph glyph-name="Q" unicode="Q" horiz-adv-x="1405" 
d="M1427 -123q0 -36 -3.5 -58t-9.5 -34t-13 -15.5t-15 -3.5q-33 0 -86.5 18t-115.5 51.5t-126.5 82t-119.5 111.5q-46 -21 -111.5 -36.5t-145.5 -15.5q-151 0 -263.5 38.5t-187.5 119.5t-112.5 206.5t-37.5 298.5q0 157 40 282.5t119 213t195.5 134.5t270.5 47
q145 0 256.5 -39t188 -119.5t116 -203.5t39.5 -291q0 -87 -11.5 -163.5t-33.5 -141.5t-54 -119t-73 -95q62 -54 110 -82t80.5 -42t52 -20.5t30.5 -17t16 -36t5 -70.5zM1029 650q0 101 -16 184t-54.5 142.5t-102.5 92t-160 32.5q-97 0 -162 -36t-105 -97t-56.5 -142.5
t-16.5 -171.5q0 -107 16 -192t54 -145t102 -91.5t161 -31.5t162 36t105 98t56.5 145t16.5 177z" />
    <glyph glyph-name="R" unicode="R" horiz-adv-x="1153" 
d="M1101 34q0 -11 -4 -18.5t-19 -12.5t-44 -7t-79 -2q-42 0 -67 2t-39.5 7.5t-20.5 14t-10 20.5l-116 289q-21 49 -41 87t-44.5 63.5t-56.5 38.5t-74 13h-82v-493q0 -10 -6.5 -18t-21.5 -13t-40 -8t-64 -3q-38 0 -63.5 3t-40.5 8t-21 13t-6 18v1175q0 44 22.5 63.5
t55.5 19.5h335q51 0 84 -2t60 -5q78 -11 140.5 -38t106 -70.5t66.5 -103t23 -136.5q0 -65 -16.5 -118.5t-48.5 -95.5t-79 -73t-107 -50q29 -14 54.5 -34t48 -48.5t42.5 -65t39 -82.5l109 -255q15 -38 20 -55.5t5 -27.5zM762 912q0 64 -29 108t-95 62q-20 5 -45.5 8t-70.5 3
h-118v-367h134q56 0 98 13.5t70 38t42 58.5t14 76z" />
    <glyph glyph-name="Racute" unicode="&#x154;" horiz-adv-x="1153" 
d="M1101 34q0 -11 -4 -18.5t-19 -12.5t-44 -7t-79 -2q-42 0 -67 2t-39.5 7.5t-20.5 14t-10 20.5l-116 289q-21 49 -41 87t-44.5 63.5t-56.5 38.5t-74 13h-82v-493q0 -10 -6.5 -18t-21.5 -13t-40 -8t-64 -3q-38 0 -63.5 3t-40.5 8t-21 13t-6 18v1175q0 44 22.5 63.5
t55.5 19.5h335q51 0 84 -2t60 -5q78 -11 140.5 -38t106 -70.5t66.5 -103t23 -136.5q0 -65 -16.5 -118.5t-48.5 -95.5t-79 -73t-107 -50q29 -14 54.5 -34t48 -48.5t42.5 -65t39 -82.5l109 -255q15 -38 20 -55.5t5 -27.5zM762 912q0 64 -29 108t-95 62q-20 5 -45.5 8t-70.5 3
h-118v-367h134q56 0 98 13.5t70 38t42 58.5t14 76zM611 1643q13 15 25.5 24t30 14t42.5 6.5t62 1.5q46 0 71.5 -6t35 -15.5t4.5 -21.5t-19 -25l-222 -200q-10 -9 -20.5 -15.5t-25.5 -11t-36 -6.5t-52 -2q-34 0 -54.5 3t-29 9.5t-6.5 16.5t14 24zM314 1294z" />
    <glyph glyph-name="Rcaron" unicode="&#x158;" horiz-adv-x="1153" 
d="M1101 34q0 -11 -4 -18.5t-19 -12.5t-44 -7t-79 -2q-42 0 -67 2t-39.5 7.5t-20.5 14t-10 20.5l-116 289q-21 49 -41 87t-44.5 63.5t-56.5 38.5t-74 13h-82v-493q0 -10 -6.5 -18t-21.5 -13t-40 -8t-64 -3q-38 0 -63.5 3t-40.5 8t-21 13t-6 18v1175q0 44 22.5 63.5
t55.5 19.5h335q51 0 84 -2t60 -5q78 -11 140.5 -38t106 -70.5t66.5 -103t23 -136.5q0 -65 -16.5 -118.5t-48.5 -95.5t-79 -73t-107 -50q29 -14 54.5 -34t48 -48.5t42.5 -65t39 -82.5l109 -255q15 -38 20 -55.5t5 -27.5zM762 912q0 64 -29 108t-95 62q-20 5 -45.5 8t-70.5 3
h-118v-367h134q56 0 98 13.5t70 38t42 58.5t14 76zM565 1386q-32 0 -54 1t-37.5 5.5t-27 13t-24.5 21.5l-198 214q-13 15 -15.5 24.5t6 14.5t30 7t55.5 2q41 0 67 -1.5t41.5 -5t24 -9.5t16.5 -15l118 -137l123 135q8 10 16.5 16.5t24 10t40.5 5t67 1.5q34 0 54 -2.5t28.5 -8
t6 -15t-13.5 -22.5l-195 -214q-11 -13 -24 -21t-30.5 -12.5t-41 -6t-57.5 -1.5zM106 1294z" />
    <glyph glyph-name="Rcommaaccent" unicode="&#x156;" horiz-adv-x="1153" 
d="M1101 34q0 -11 -4 -18.5t-19 -12.5t-44 -7t-79 -2q-42 0 -67 2t-39.5 7.5t-20.5 14t-10 20.5l-116 289q-21 49 -41 87t-44.5 63.5t-56.5 38.5t-74 13h-82v-493q0 -10 -6.5 -18t-21.5 -13t-40 -8t-64 -3q-38 0 -63.5 3t-40.5 8t-21 13t-6 18v1175q0 44 22.5 63.5
t55.5 19.5h335q51 0 84 -2t60 -5q78 -11 140.5 -38t106 -70.5t66.5 -103t23 -136.5q0 -65 -16.5 -118.5t-48.5 -95.5t-79 -73t-107 -50q29 -14 54.5 -34t48 -48.5t42.5 -65t39 -82.5l109 -255q15 -38 20 -55.5t5 -27.5zM762 912q0 64 -29 108t-95 62q-20 5 -45.5 8t-70.5 3
h-118v-367h134q56 0 98 13.5t70 38t42 58.5t14 76zM471 -123q3 11 11 19.5t23.5 13.5t41 7t65.5 2t63 -4t33.5 -11.5t10 -18.5t-7.5 -25l-98 -190q-5 -10 -12 -16.5t-19.5 -11t-33 -6t-52.5 -1.5t-50.5 2.5t-27 9t-8.5 16.5t4 24z" />
    <glyph glyph-name="S" unicode="S" horiz-adv-x="968" 
d="M908 388q0 -102 -38 -179t-103 -128.5t-152 -77.5t-186 -26q-67 0 -124.5 11t-101.5 26.5t-73.5 32.5t-42.5 30t-18.5 37.5t-5.5 70.5q0 31 2 52t6.5 34t12 18.5t17.5 5.5q14 0 39.5 -16.5t65.5 -36.5t95.5 -36.5t128.5 -16.5q48 0 86 11.5t64.5 32.5t40.5 52t14 69
q0 44 -24 75.5t-62.5 56t-87.5 46t-101 45.5t-101 54.5t-87.5 73t-62.5 100.5t-24 139q0 93 34.5 163.5t93 117t138 69.5t168.5 23q46 0 92 -7t86 -19t71 -27t41 -25t13.5 -17t6 -18.5t3.5 -29t1 -43.5q0 -29 -1.5 -49t-5 -33t-10 -19t-17.5 -6t-35 14t-59 30.5t-81 30
t-101 13.5q-43 0 -75 -10.5t-53.5 -29t-32 -44.5t-10.5 -55q0 -43 23.5 -74.5t63 -56t89.5 -46t102 -45.5t102 -54.5t89 -73t63 -100t24 -135.5z" />
    <glyph glyph-name="Sacute" unicode="&#x15a;" horiz-adv-x="968" 
d="M908 388q0 -102 -38 -179t-103 -128.5t-152 -77.5t-186 -26q-67 0 -124.5 11t-101.5 26.5t-73.5 32.5t-42.5 30t-18.5 37.5t-5.5 70.5q0 31 2 52t6.5 34t12 18.5t17.5 5.5q14 0 39.5 -16.5t65.5 -36.5t95.5 -36.5t128.5 -16.5q48 0 86 11.5t64.5 32.5t40.5 52t14 69
q0 44 -24 75.5t-62.5 56t-87.5 46t-101 45.5t-101 54.5t-87.5 73t-62.5 100.5t-24 139q0 93 34.5 163.5t93 117t138 69.5t168.5 23q46 0 92 -7t86 -19t71 -27t41 -25t13.5 -17t6 -18.5t3.5 -29t1 -43.5q0 -29 -1.5 -49t-5 -33t-10 -19t-17.5 -6t-35 14t-59 30.5t-81 30
t-101 13.5q-43 0 -75 -10.5t-53.5 -29t-32 -44.5t-10.5 -55q0 -43 23.5 -74.5t63 -56t89.5 -46t102 -45.5t102 -54.5t89 -73t63 -100t24 -135.5zM570 1643q13 15 25.5 24t30 14t42.5 6.5t62 1.5q46 0 71.5 -6t35 -15.5t4.5 -21.5t-19 -25l-222 -200q-10 -9 -20.5 -15.5
t-25.5 -11t-36 -6.5t-52 -2q-34 0 -54.5 3t-29 9.5t-6.5 16.5t14 24zM273 1294z" />
    <glyph glyph-name="Scircumflex" unicode="&#x15c;" horiz-adv-x="968" 
d="M908 388q0 -102 -38 -179t-103 -128.5t-152 -77.5t-186 -26q-67 0 -124.5 11t-101.5 26.5t-73.5 32.5t-42.5 30t-18.5 37.5t-5.5 70.5q0 31 2 52t6.5 34t12 18.5t17.5 5.5q14 0 39.5 -16.5t65.5 -36.5t95.5 -36.5t128.5 -16.5q48 0 86 11.5t64.5 32.5t40.5 52t14 69
q0 44 -24 75.5t-62.5 56t-87.5 46t-101 45.5t-101 54.5t-87.5 73t-62.5 100.5t-24 139q0 93 34.5 163.5t93 117t138 69.5t168.5 23q46 0 92 -7t86 -19t71 -27t41 -25t13.5 -17t6 -18.5t3.5 -29t1 -43.5q0 -29 -1.5 -49t-5 -33t-10 -19t-17.5 -6t-35 14t-59 30.5t-81 30
t-101 13.5q-43 0 -75 -10.5t-53.5 -29t-32 -44.5t-10.5 -55q0 -43 23.5 -74.5t63 -56t89.5 -46t102 -45.5t102 -54.5t89 -73t63 -100t24 -135.5zM495 1689q32 0 54 -1t37 -5.5t27 -12.5t25 -22l198 -214q13 -14 15.5 -23.5t-6 -15t-29.5 -7.5t-56 -2q-41 0 -67 1.5t-41.5 5
t-24 9.5t-16.5 15l-118 137l-122 -134q-9 -11 -17.5 -17t-24 -10t-40.5 -5.5t-67 -1.5q-34 0 -54 2.5t-28.5 8t-6.5 14.5t14 23l195 214q11 13 24 21t30.5 12.5t41.5 6t57 1.5zM31 1294z" />
    <glyph glyph-name="Scaron" unicode="&#x160;" horiz-adv-x="968" 
d="M908 388q0 -102 -38 -179t-103 -128.5t-152 -77.5t-186 -26q-67 0 -124.5 11t-101.5 26.5t-73.5 32.5t-42.5 30t-18.5 37.5t-5.5 70.5q0 31 2 52t6.5 34t12 18.5t17.5 5.5q14 0 39.5 -16.5t65.5 -36.5t95.5 -36.5t128.5 -16.5q48 0 86 11.5t64.5 32.5t40.5 52t14 69
q0 44 -24 75.5t-62.5 56t-87.5 46t-101 45.5t-101 54.5t-87.5 73t-62.5 100.5t-24 139q0 93 34.5 163.5t93 117t138 69.5t168.5 23q46 0 92 -7t86 -19t71 -27t41 -25t13.5 -17t6 -18.5t3.5 -29t1 -43.5q0 -29 -1.5 -49t-5 -33t-10 -19t-17.5 -6t-35 14t-59 30.5t-81 30
t-101 13.5q-43 0 -75 -10.5t-53.5 -29t-32 -44.5t-10.5 -55q0 -43 23.5 -74.5t63 -56t89.5 -46t102 -45.5t102 -54.5t89 -73t63 -100t24 -135.5zM494 1386q-32 0 -54 1t-37.5 5.5t-27 13t-24.5 21.5l-198 214q-13 15 -15.5 24.5t6 14.5t30 7t55.5 2q41 0 67 -1.5t41.5 -5
t24 -9.5t16.5 -15l118 -137l123 135q8 10 16.5 16.5t24 10t40.5 5t67 1.5q34 0 54 -2.5t28.5 -8t6 -15t-13.5 -22.5l-195 -214q-11 -13 -24 -21t-30.5 -12.5t-41 -6t-57.5 -1.5zM35 1294z" />
    <glyph glyph-name="Scedilla" unicode="&#x15e;" horiz-adv-x="968" 
d="M555 -11l25 -55q18 -39 26.5 -68t8.5 -56q0 -46 -17 -79t-46 -54t-68 -31.5t-84 -10.5q-44 0 -81.5 6t-62 13t-35 12t-15 13t-6.5 20.5t-2 34.5q0 40 7.5 55.5t27.5 15.5h116q29 0 43.5 12.5t14.5 34.5q0 12 -5 27t-12 31l-32 71q-41 3 -79.5 11.5t-80 23.5t-70 31.5
t-41.5 29.5t-18.5 37.5t-5.5 70.5q0 31 2 52t6.5 34t12 18.5t17.5 5.5q14 0 39.5 -16.5t65.5 -36.5t95.5 -36.5t128.5 -16.5q48 0 86 11.5t64.5 32.5t40.5 52t14 69q0 44 -24 75.5t-62.5 56t-87.5 46t-101 45.5t-101 54.5t-87.5 73t-62.5 100.5t-24 139q0 93 34.5 163.5
t93 117t138 69.5t168.5 23q46 0 92 -7t86 -19t71 -27t41 -25t13.5 -17t6 -18.5t3.5 -29t1 -43.5q0 -29 -1.5 -49t-5 -33t-10 -19t-17.5 -6t-35 14t-59 30.5t-81 30t-101 13.5q-43 0 -75 -10.5t-53.5 -29t-32 -44.5t-10.5 -55q0 -43 23.5 -74.5t63 -56t89.5 -46t102 -45.5
t102 -54.5t89 -73t63 -100t24 -135.5q0 -101 -39.5 -182.5t-117 -137.5t-196.5 -79z" />
    <glyph glyph-name="Scommaaccent" unicode="&#x218;" horiz-adv-x="968" 
d="M908 388q0 -102 -38 -179t-103 -128.5t-152 -77.5t-186 -26q-67 0 -124.5 11t-101.5 26.5t-73.5 32.5t-42.5 30t-18.5 37.5t-5.5 70.5q0 31 2 52t6.5 34t12 18.5t17.5 5.5q14 0 39.5 -16.5t65.5 -36.5t95.5 -36.5t128.5 -16.5q48 0 86 11.5t64.5 32.5t40.5 52t14 69
q0 44 -24 75.5t-62.5 56t-87.5 46t-101 45.5t-101 54.5t-87.5 73t-62.5 100.5t-24 139q0 93 34.5 163.5t93 117t138 69.5t168.5 23q46 0 92 -7t86 -19t71 -27t41 -25t13.5 -17t6 -18.5t3.5 -29t1 -43.5q0 -29 -1.5 -49t-5 -33t-10 -19t-17.5 -6t-35 14t-59 30.5t-81 30
t-101 13.5q-43 0 -75 -10.5t-53.5 -29t-32 -44.5t-10.5 -55q0 -43 23.5 -74.5t63 -56t89.5 -46t102 -45.5t102 -54.5t89 -73t63 -100t24 -135.5zM351 -123q3 11 11 19.5t23.5 13.5t41 7t65.5 2t63 -4t33.5 -11.5t10 -18.5t-7.5 -25l-98 -190q-5 -10 -12 -16.5t-19.5 -11
t-33 -6t-52.5 -1.5t-50.5 2.5t-27 9t-8.5 16.5t4 24z" />
    <glyph glyph-name="T" unicode="T" horiz-adv-x="1014" 
d="M1002 1186q0 -29 -2.5 -49.5t-7.5 -33t-12.5 -18.5t-16.5 -6h-324v-1043q0 -10 -6.5 -18t-21.5 -13t-40.5 -8t-63.5 -3t-63.5 3t-40.5 8t-21.5 13t-6.5 18v1043h-324q-10 0 -17 6t-12 18.5t-7.5 33t-2.5 49.5q0 30 2.5 51t7.5 33.5t12 18t17 5.5h912q9 0 16.5 -5.5
t12.5 -18t7.5 -33.5t2.5 -51z" />
    <glyph glyph-name="Tcaron" unicode="&#x164;" horiz-adv-x="1014" 
d="M1002 1186q0 -29 -2.5 -49.5t-7.5 -33t-12.5 -18.5t-16.5 -6h-324v-1043q0 -10 -6.5 -18t-21.5 -13t-40.5 -8t-63.5 -3t-63.5 3t-40.5 8t-21.5 13t-6.5 18v1043h-324q-10 0 -17 6t-12 18.5t-7.5 33t-2.5 49.5q0 30 2.5 51t7.5 33.5t12 18t17 5.5h912q9 0 16.5 -5.5
t12.5 -18t7.5 -33.5t2.5 -51zM504 1386q-32 0 -54 1t-37.5 5.5t-27 13t-24.5 21.5l-198 214q-13 15 -15.5 24.5t6 14.5t30 7t55.5 2q41 0 67 -1.5t41.5 -5t24 -9.5t16.5 -15l118 -137l123 135q8 10 16.5 16.5t24 10t40.5 5t67 1.5q34 0 54 -2.5t28.5 -8t6 -15t-13.5 -22.5
l-195 -214q-11 -13 -24 -21t-30.5 -12.5t-41 -6t-57.5 -1.5zM45 1294z" />
    <glyph glyph-name="Tcommaaccent" unicode="&#x162;" horiz-adv-x="1014" 
d="M1002 1186q0 -29 -2.5 -49.5t-7.5 -33t-12.5 -18.5t-16.5 -6h-324v-1043q0 -10 -6.5 -18t-21.5 -13t-40.5 -8t-63.5 -3t-63.5 3t-40.5 8t-21.5 13t-6.5 18v1043h-324q-10 0 -17 6t-12 18.5t-7.5 33t-2.5 49.5q0 30 2.5 51t7.5 33.5t12 18t17 5.5h912q9 0 16.5 -5.5
t12.5 -18t7.5 -33.5t2.5 -51zM381 -123q3 11 11 19.5t23.5 13.5t41 7t65.5 2t63 -4t33.5 -11.5t10 -18.5t-7.5 -25l-98 -190q-5 -10 -12 -16.5t-19.5 -11t-33 -6t-52.5 -1.5t-50.5 2.5t-27 9t-8.5 16.5t4 24z" />
    <glyph glyph-name="Tcommaaccent" unicode="&#x21a;" horiz-adv-x="1014" 
d="M1002 1186q0 -29 -2.5 -49.5t-7.5 -33t-12.5 -18.5t-16.5 -6h-324v-1043q0 -10 -6.5 -18t-21.5 -13t-40.5 -8t-63.5 -3t-63.5 3t-40.5 8t-21.5 13t-6.5 18v1043h-324q-10 0 -17 6t-12 18.5t-7.5 33t-2.5 49.5q0 30 2.5 51t7.5 33.5t12 18t17 5.5h912q9 0 16.5 -5.5
t12.5 -18t7.5 -33.5t2.5 -51zM381 -123q3 11 11 19.5t23.5 13.5t41 7t65.5 2t63 -4t33.5 -11.5t10 -18.5t-7.5 -25l-98 -190q-5 -10 -12 -16.5t-19.5 -11t-33 -6t-52.5 -1.5t-50.5 2.5t-27 9t-8.5 16.5t4 24z" />
    <glyph glyph-name="Tbar" unicode="&#x166;" horiz-adv-x="1014" 
d="M639 744h222q9 0 16.5 -5t12.5 -16.5t7.5 -31t2.5 -47.5q0 -29 -2.5 -48t-7.5 -31.5t-12.5 -17.5t-16.5 -5h-222v-508q0 -10 -6.5 -17.5t-21.5 -12.5t-40.5 -7.5t-63.5 -2.5t-63.5 2.5t-40.5 7.5t-21.5 12.5t-6.5 17.5v508h-222q-10 0 -17 5t-12 16.5t-7.5 31t-2.5 48.5
q0 28 2.5 47.5t7.5 31.5t12 17t17 5h222v335h-324q-10 0 -17 6t-12 18.5t-7.5 33t-2.5 49.5q0 30 2.5 51t7.5 33.5t12 18t17 5.5h912q9 0 16.5 -5.5t12.5 -18t7.5 -33.5t2.5 -51q0 -29 -2.5 -49.5t-7.5 -33t-12.5 -18.5t-16.5 -6h-324v-335z" />
    <glyph glyph-name="U" unicode="U" horiz-adv-x="1337" 
d="M1197 482q0 -119 -35 -213t-103 -159t-168 -99t-230 -34q-122 0 -219 30.5t-164 92.5t-102.5 154.5t-35.5 216.5v787q0 10 6 18t21.5 13t40.5 8t64 3q38 0 63 -3t40 -8t21.5 -13t6.5 -18v-764q0 -77 19 -133.5t54.5 -93.5t85 -55.5t110.5 -18.5q62 0 111 19t83 55.5
t52.5 90t18.5 121.5v779q0 10 6 18t21 13t40.5 8t63.5 3t62.5 -3t39.5 -8t21 -13t6 -18v-776z" />
    <glyph glyph-name="Ugrave" unicode="&#xd9;" horiz-adv-x="1337" 
d="M1197 482q0 -119 -35 -213t-103 -159t-168 -99t-230 -34q-122 0 -219 30.5t-164 92.5t-102.5 154.5t-35.5 216.5v787q0 10 6 18t21.5 13t40.5 8t64 3q38 0 63 -3t40 -8t21.5 -13t6.5 -18v-764q0 -77 19 -133.5t54.5 -93.5t85 -55.5t110.5 -18.5q62 0 111 19t83 55.5
t52.5 90t18.5 121.5v779q0 10 6 18t21 13t40.5 8t63.5 3t62.5 -3t39.5 -8t21 -13t6 -18v-776zM760 1439q11 -14 13.5 -24t-6.5 -16.5t-29 -9.5t-54 -3q-31 0 -52 2t-36 6.5t-25.5 11t-20.5 15.5l-222 200q-15 13 -19.5 25t5 21.5t35 15.5t71.5 6q37 0 61.5 -1.5t42 -6.5
t30.5 -14t26 -24zM205 1294z" />
    <glyph glyph-name="Uacute" unicode="&#xda;" horiz-adv-x="1337" 
d="M1197 482q0 -119 -35 -213t-103 -159t-168 -99t-230 -34q-122 0 -219 30.5t-164 92.5t-102.5 154.5t-35.5 216.5v787q0 10 6 18t21.5 13t40.5 8t64 3q38 0 63 -3t40 -8t21.5 -13t6.5 -18v-764q0 -77 19 -133.5t54.5 -93.5t85 -55.5t110.5 -18.5q62 0 111 19t83 55.5
t52.5 90t18.5 121.5v779q0 10 6 18t21 13t40.5 8t63.5 3t62.5 -3t39.5 -8t21 -13t6 -18v-776zM741 1643q13 15 25.5 24t30 14t42.5 6.5t62 1.5q46 0 71.5 -6t35 -15.5t4.5 -21.5t-19 -25l-222 -200q-10 -9 -20.5 -15.5t-25.5 -11t-36 -6.5t-52 -2q-34 0 -54.5 3t-29 9.5
t-6.5 16.5t14 24zM444 1294z" />
    <glyph glyph-name="Ucircumflex" unicode="&#xdb;" horiz-adv-x="1337" 
d="M1197 482q0 -119 -35 -213t-103 -159t-168 -99t-230 -34q-122 0 -219 30.5t-164 92.5t-102.5 154.5t-35.5 216.5v787q0 10 6 18t21.5 13t40.5 8t64 3q38 0 63 -3t40 -8t21.5 -13t6.5 -18v-764q0 -77 19 -133.5t54.5 -93.5t85 -55.5t110.5 -18.5q62 0 111 19t83 55.5
t52.5 90t18.5 121.5v779q0 10 6 18t21 13t40.5 8t63.5 3t62.5 -3t39.5 -8t21 -13t6 -18v-776zM668 1689q32 0 54 -1t37 -5.5t27 -12.5t25 -22l198 -214q13 -14 15.5 -23.5t-6 -15t-29.5 -7.5t-56 -2q-41 0 -67 1.5t-41.5 5t-24 9.5t-16.5 15l-118 137l-122 -134
q-9 -11 -17.5 -17t-24 -10t-40.5 -5.5t-67 -1.5q-34 0 -54 2.5t-28.5 8t-6.5 14.5t14 23l195 214q11 13 24 21t30.5 12.5t41.5 6t57 1.5zM204 1294z" />
    <glyph glyph-name="Utilde" unicode="&#x168;" horiz-adv-x="1337" 
d="M1197 482q0 -119 -35 -213t-103 -159t-168 -99t-230 -34q-122 0 -219 30.5t-164 92.5t-102.5 154.5t-35.5 216.5v787q0 10 6 18t21.5 13t40.5 8t64 3q38 0 63 -3t40 -8t21.5 -13t6.5 -18v-764q0 -77 19 -133.5t54.5 -93.5t85 -55.5t110.5 -18.5q62 0 111 19t83 55.5
t52.5 90t18.5 121.5v779q0 10 6 18t21 13t40.5 8t63.5 3t62.5 -3t39.5 -8t21 -13t6 -18v-776zM871 1636q0 16 17 21t62 5t60.5 -7.5t15.5 -30.5q0 -115 -56.5 -175t-162.5 -60q-57 0 -96.5 15.5t-70.5 34t-56.5 34t-55.5 15.5q-34 0 -48.5 -19t-14.5 -54q0 -9 -4.5 -14
t-14.5 -7.5t-24.5 -3.5t-35.5 -1q-45 0 -60.5 7.5t-15.5 30.5q0 57 15 101t43.5 73.5t69 45t91.5 15.5q57 0 96.5 -15.5t70 -34.5t56.5 -34.5t56 -15.5q29 0 46 16.5t17 57.5zM209 1294z" />
    <glyph glyph-name="Udieresis" unicode="&#xdc;" horiz-adv-x="1337" 
d="M1197 482q0 -119 -35 -213t-103 -159t-168 -99t-230 -34q-122 0 -219 30.5t-164 92.5t-102.5 154.5t-35.5 216.5v787q0 10 6 18t21.5 13t40.5 8t64 3q38 0 63 -3t40 -8t21.5 -13t6.5 -18v-764q0 -77 19 -133.5t54.5 -93.5t85 -55.5t110.5 -18.5q62 0 111 19t83 55.5
t52.5 90t18.5 121.5v779q0 10 6 18t21 13t40.5 8t63.5 3t62.5 -3t39.5 -8t21 -13t6 -18v-776zM580 1534q0 -70 -27.5 -98t-104.5 -28t-104 27t-27 95q0 71 28 98.5t104 27.5q78 0 104.5 -26.5t26.5 -95.5zM1017 1534q0 -70 -28 -98t-105 -28t-103.5 27t-26.5 95
q0 71 27.5 98.5t104.5 27.5t104 -26.5t27 -95.5zM215 1294z" />
    <glyph glyph-name="Umacron" unicode="&#x16a;" horiz-adv-x="1337" 
d="M1197 482q0 -119 -35 -213t-103 -159t-168 -99t-230 -34q-122 0 -219 30.5t-164 92.5t-102.5 154.5t-35.5 216.5v787q0 10 6 18t21.5 13t40.5 8t64 3q38 0 63 -3t40 -8t21.5 -13t6.5 -18v-764q0 -77 19 -133.5t54.5 -93.5t85 -55.5t110.5 -18.5q62 0 111 19t83 55.5
t52.5 90t18.5 121.5v779q0 10 6 18t21 13t40.5 8t63.5 3t62.5 -3t39.5 -8t21 -13t6 -18v-776zM964 1616q11 0 18.5 -5t12.5 -15.5t7 -28.5t2 -44t-2 -43.5t-7 -28.5t-12.5 -15.5t-18.5 -4.5h-590q-12 0 -20.5 4.5t-13.5 15.5t-7.5 28.5t-2.5 43.5q0 25 2.5 43t7.5 29
t13.5 16t20.5 5h590zM228 1294z" />
    <glyph glyph-name="Ubreve" unicode="&#x16c;" horiz-adv-x="1337" 
d="M1197 482q0 -119 -35 -213t-103 -159t-168 -99t-230 -34q-122 0 -219 30.5t-164 92.5t-102.5 154.5t-35.5 216.5v787q0 10 6 18t21.5 13t40.5 8t64 3q38 0 63 -3t40 -8t21.5 -13t6.5 -18v-764q0 -77 19 -133.5t54.5 -93.5t85 -55.5t110.5 -18.5q62 0 111 19t83 55.5
t52.5 90t18.5 121.5v779q0 10 6 18t21 13t40.5 8t63.5 3t62.5 -3t39.5 -8t21 -13t6 -18v-776zM967 1661q0 -63 -19 -114t-57 -87t-94.5 -55t-130.5 -19q-78 0 -134.5 20t-93 55.5t-54 86.5t-17.5 113q0 20 17.5 28t66.5 8q48 0 67.5 -7t21 -24.5t10 -43.5t24 -42.5t38.5 -25
t56 -8.5q43 0 70.5 16.5t40.5 41.5t15.5 49.5t19 34t65.5 9.5q51 0 69.5 -8t18.5 -28zM265 1294z" />
    <glyph glyph-name="Uring" unicode="&#x16e;" horiz-adv-x="1337" 
d="M1197 482q0 -119 -35 -213t-103 -159t-168 -99t-230 -34q-122 0 -219 30.5t-164 92.5t-102.5 154.5t-35.5 216.5v787q0 10 6 18t21.5 13t40.5 8t64 3q38 0 63 -3t40 -8t21.5 -13t6.5 -18v-764q0 -77 19 -133.5t54.5 -93.5t85 -55.5t110.5 -18.5q62 0 111 19t83 55.5
t52.5 90t18.5 121.5v779q0 10 6 18t21 13t40.5 8t63.5 3t62.5 -3t39.5 -8t21 -13t6 -18v-776zM905 1558q0 -48 -16.5 -86t-47 -63.5t-76 -39.5t-103.5 -14q-59 0 -102.5 13t-72.5 38t-43.5 61.5t-14.5 83.5q0 48 16 85.5t47 63.5t75.5 39.5t102.5 13.5q116 0 175.5 -49.5
t59.5 -145.5zM752 1553q0 39 -20 63t-67 24q-41 0 -62 -22t-21 -62q0 -42 20 -65t67 -23q42 0 62.5 23t20.5 62zM327 1294z" />
    <glyph glyph-name="Uhungarumlaut" unicode="&#x170;" horiz-adv-x="1337" 
d="M1197 482q0 -119 -35 -213t-103 -159t-168 -99t-230 -34q-122 0 -219 30.5t-164 92.5t-102.5 154.5t-35.5 216.5v787q0 10 6 18t21.5 13t40.5 8t64 3q38 0 63 -3t40 -8t21.5 -13t6.5 -18v-764q0 -77 19 -133.5t54.5 -93.5t85 -55.5t110.5 -18.5q62 0 111 19t83 55.5
t52.5 90t18.5 121.5v779q0 10 6 18t21 13t40.5 8t63.5 3t62.5 -3t39.5 -8t21 -13t6 -18v-776zM547 1409q-8 -8 -17 -12.5t-22.5 -7t-32.5 -3t-47 -0.5q-53 0 -69.5 11t-1.5 32l163 232q7 10 18 16.5t28.5 11t42 6.5t57.5 2q54 0 84.5 -3.5t42.5 -10t8.5 -16.5t-16.5 -22z
M980 1411q-10 -9 -19.5 -14t-23 -7.5t-33.5 -3t-50 -0.5t-50 2.5t-30.5 7.5t-11.5 12.5t6 16.5l183 236q6 9 16.5 15.5t28 11.5t44.5 7t69 2q48 0 77 -3.5t41.5 -11t10 -17t-15.5 -21.5zM247 1294z" />
    <glyph glyph-name="Uogonek" unicode="&#x172;" horiz-adv-x="1337" 
d="M1197 482q0 -135 -44 -236t-135 -169q-24 -18 -41.5 -31.5t-33.5 -27.5t-32.5 -30t-39.5 -39l-37 -36q-20 -20 -26.5 -37t-6.5 -28q0 -22 15 -32.5t47 -10.5h98q9 0 15 -2.5t10 -9.5t5.5 -20t1.5 -33q0 -21 -2 -35t-6.5 -23t-12 -14t-17.5 -8q-37 -13 -81.5 -19t-98.5 -6
q-105 0 -165 41t-60 125q0 15 2.5 31.5t10.5 35t21.5 38.5t36.5 43l36 36q-6 -1 -14.5 -2t-19.5 -1q-64 0 -125 12t-115 37t-98.5 64t-76.5 93.5t-50 125t-18 157.5v789q0 10 6 17.5t21.5 12.5t40.5 7.5t64 2.5q38 0 63 -2.5t40 -7.5t21.5 -12.5t6.5 -17.5v-770
q0 -75 19 -131t54.5 -92.5t85 -55t110.5 -18.5q62 0 111 19t83 55.5t52.5 90t18.5 121.5v781q0 10 6 17.5t21 12.5t40.5 7.5t64.5 2.5q38 0 62.5 -2.5t39 -7.5t20.5 -12.5t6 -17.5v-778z" />
    <glyph glyph-name="V" unicode="V" horiz-adv-x="1211" 
d="M785 46q-5 -17 -13 -27.5t-26 -16t-49 -7t-81 -1.5q-40 0 -68.5 0.5t-48.5 2.5t-32.5 6t-21 10t-13 14.5t-8.5 21.5l-385 1147q-12 36 -14.5 57t10 31.5t42.5 13t84 2.5q46 0 72 -2t40 -7t19.5 -15t10.5 -25l315 -998h1l309 993q4 17 10 27.5t20.5 16.5t41.5 8t74 2
q46 0 71.5 -3t35 -14.5t6 -32.5t-15.5 -56z" />
    <glyph glyph-name="W" unicode="W" horiz-adv-x="1856" 
d="M1503 67q-6 -24 -16.5 -38.5t-31.5 -22t-54 -10t-84 -2.5q-57 0 -91.5 2.5t-54.5 10t-29 22t-14 38.5l-207 820h-2l-196 -820q-5 -23 -14 -37.5t-28.5 -22.5t-53 -10.5t-88.5 -2.5q-58 0 -92.5 2.5t-54.5 10t-29 22t-15 38.5l-294 1129q-9 36 -10 56.5t11.5 31.5t41 13.5
t79.5 2.5q47 0 74.5 -1.5t41.5 -7t19 -16t8 -29.5l227 -991h1l236 984q4 19 10.5 31t22 18.5t42.5 9t72 2.5q48 0 76.5 -2t44 -8.5t22.5 -18.5t11 -32l244 -984h2l227 988q3 16 8 27.5t19 18t40 9t73 2.5q44 0 68.5 -2.5t35.5 -13.5t9.5 -32.5t-10.5 -58.5z" />
    <glyph glyph-name="Wgrave" unicode="&#x1e80;" horiz-adv-x="1856" 
d="M1503 67q-6 -24 -16.5 -38.5t-31.5 -22t-54 -10t-84 -2.5q-57 0 -91.5 2.5t-54.5 10t-29 22t-14 38.5l-207 820h-2l-196 -820q-5 -23 -14 -37.5t-28.5 -22.5t-53 -10.5t-88.5 -2.5q-58 0 -92.5 2.5t-54.5 10t-29 22t-15 38.5l-294 1129q-9 36 -10 56.5t11.5 31.5t41 13.5
t79.5 2.5q47 0 74.5 -1.5t41.5 -7t19 -16t8 -29.5l227 -991h1l236 984q4 19 10.5 31t22 18.5t42.5 9t72 2.5q48 0 76.5 -2t44 -8.5t22.5 -18.5t11 -32l244 -984h2l227 988q3 16 8 27.5t19 18t40 9t73 2.5q44 0 68.5 -2.5t35.5 -13.5t9.5 -32.5t-10.5 -58.5zM1024 1439
q11 -14 13.5 -24t-6.5 -16.5t-29 -9.5t-54 -3q-31 0 -52 2t-36 6.5t-25.5 11t-20.5 15.5l-222 200q-15 13 -19.5 25t5 21.5t35 15.5t71.5 6q37 0 61.5 -1.5t42 -6.5t30.5 -14t26 -24zM469 1294z" />
    <glyph glyph-name="Wacute" unicode="&#x1e82;" horiz-adv-x="1856" 
d="M1503 67q-6 -24 -16.5 -38.5t-31.5 -22t-54 -10t-84 -2.5q-57 0 -91.5 2.5t-54.5 10t-29 22t-14 38.5l-207 820h-2l-196 -820q-5 -23 -14 -37.5t-28.5 -22.5t-53 -10.5t-88.5 -2.5q-58 0 -92.5 2.5t-54.5 10t-29 22t-15 38.5l-294 1129q-9 36 -10 56.5t11.5 31.5t41 13.5
t79.5 2.5q47 0 74.5 -1.5t41.5 -7t19 -16t8 -29.5l227 -991h1l236 984q4 19 10.5 31t22 18.5t42.5 9t72 2.5q48 0 76.5 -2t44 -8.5t22.5 -18.5t11 -32l244 -984h2l227 988q3 16 8 27.5t19 18t40 9t73 2.5q44 0 68.5 -2.5t35.5 -13.5t9.5 -32.5t-10.5 -58.5zM1014 1643
q13 15 25.5 24t30 14t42.5 6.5t62 1.5q46 0 71.5 -6t35 -15.5t4.5 -21.5t-19 -25l-222 -200q-10 -9 -20.5 -15.5t-25.5 -11t-36 -6.5t-52 -2q-34 0 -54.5 3t-29 9.5t-6.5 16.5t14 24zM717 1294z" />
    <glyph glyph-name="Wcircumflex" unicode="&#x174;" horiz-adv-x="1856" 
d="M1503 67q-6 -24 -16.5 -38.5t-31.5 -22t-54 -10t-84 -2.5q-57 0 -91.5 2.5t-54.5 10t-29 22t-14 38.5l-207 820h-2l-196 -820q-5 -23 -14 -37.5t-28.5 -22.5t-53 -10.5t-88.5 -2.5q-58 0 -92.5 2.5t-54.5 10t-29 22t-15 38.5l-294 1129q-9 36 -10 56.5t11.5 31.5t41 13.5
t79.5 2.5q47 0 74.5 -1.5t41.5 -7t19 -16t8 -29.5l227 -991h1l236 984q4 19 10.5 31t22 18.5t42.5 9t72 2.5q48 0 76.5 -2t44 -8.5t22.5 -18.5t11 -32l244 -984h2l227 988q3 16 8 27.5t19 18t40 9t73 2.5q44 0 68.5 -2.5t35.5 -13.5t9.5 -32.5t-10.5 -58.5zM950 1689
q32 0 54 -1t37 -5.5t27 -12.5t25 -22l198 -214q13 -14 15.5 -23.5t-6 -15t-29.5 -7.5t-56 -2q-41 0 -67 1.5t-41.5 5t-24 9.5t-16.5 15l-118 137l-122 -134q-9 -11 -17.5 -17t-24 -10t-40.5 -5.5t-67 -1.5q-34 0 -54 2.5t-28.5 8t-6.5 14.5t14 23l195 214q11 13 24 21
t30.5 12.5t41.5 6t57 1.5zM486 1294z" />
    <glyph glyph-name="Wdieresis" unicode="&#x1e84;" horiz-adv-x="1856" 
d="M1503 67q-6 -24 -16.5 -38.5t-31.5 -22t-54 -10t-84 -2.5q-57 0 -91.5 2.5t-54.5 10t-29 22t-14 38.5l-207 820h-2l-196 -820q-5 -23 -14 -37.5t-28.5 -22.5t-53 -10.5t-88.5 -2.5q-58 0 -92.5 2.5t-54.5 10t-29 22t-15 38.5l-294 1129q-9 36 -10 56.5t11.5 31.5t41 13.5
t79.5 2.5q47 0 74.5 -1.5t41.5 -7t19 -16t8 -29.5l227 -991h1l236 984q4 19 10.5 31t22 18.5t42.5 9t72 2.5q48 0 76.5 -2t44 -8.5t22.5 -18.5t11 -32l244 -984h2l227 988q3 16 8 27.5t19 18t40 9t73 2.5q44 0 68.5 -2.5t35.5 -13.5t9.5 -32.5t-10.5 -58.5zM859 1534
q0 -70 -27.5 -98t-104.5 -28t-104 27t-27 95q0 71 28 98.5t104 27.5q78 0 104.5 -26.5t26.5 -95.5zM1296 1534q0 -70 -28 -98t-105 -28t-103.5 27t-26.5 95q0 71 27.5 98.5t104.5 27.5t104 -26.5t27 -95.5zM494 1294z" />
    <glyph glyph-name="X" unicode="X" horiz-adv-x="1128" 
d="M1063 99q18 -35 23.5 -56t-6.5 -32t-43.5 -14t-87.5 -3q-47 0 -74 2t-42.5 6.5t-22.5 12.5t-12 20l-243 467l-242 -467q-6 -12 -13 -20t-22.5 -12.5t-43 -6.5t-72.5 -2q-52 0 -80.5 3t-38.5 14t-4 32t25 56l310 565l-288 531q-18 36 -24.5 57.5t5 32t42.5 13t88 2.5
q47 0 74.5 -2t43.5 -6.5t22.5 -12.5t12.5 -20l227 -428l221 428q6 12 12.5 20t21 12.5t40 6.5t70.5 2q50 0 79 -2.5t40 -13.5t5.5 -32t-22.5 -57l-288 -528z" />
    <glyph glyph-name="Y" unicode="Y" horiz-adv-x="1064" 
d="M664 491v-455q0 -10 -6.5 -18t-21.5 -13t-40.5 -8t-63.5 -3q-39 0 -64 3t-40.5 8t-21.5 13t-6 18v455l-354 705q-19 37 -24.5 57.5t6 31t42.5 13t86 2.5q46 0 73.5 -2t43.5 -7.5t23.5 -14.5t14.5 -23l144 -318q21 -46 41.5 -97t41.5 -107h2q19 54 39 105t39 97l142 316
q5 16 12.5 25.5t22.5 15.5t41 8t69 2q57 0 88.5 -2.5t43 -13t5.5 -31.5t-24 -57z" />
    <glyph glyph-name="Ygrave" unicode="&#x1ef2;" horiz-adv-x="1064" 
d="M664 491v-455q0 -10 -6.5 -18t-21.5 -13t-40.5 -8t-63.5 -3q-39 0 -64 3t-40.5 8t-21.5 13t-6 18v455l-354 705q-19 37 -24.5 57.5t6 31t42.5 13t86 2.5q46 0 73.5 -2t43.5 -7.5t23.5 -14.5t14.5 -23l144 -318q21 -46 41.5 -97t41.5 -107h2q19 54 39 105t39 97l142 316
q5 16 12.5 25.5t22.5 15.5t41 8t69 2q57 0 88.5 -2.5t43 -13t5.5 -31.5t-24 -57zM628 1439q11 -14 13.5 -24t-6.5 -16.5t-29 -9.5t-54 -3q-31 0 -52 2t-36 6.5t-25.5 11t-20.5 15.5l-222 200q-15 13 -19.5 25t5 21.5t35 15.5t71.5 6q37 0 61.5 -1.5t42 -6.5t30.5 -14t26 -24
zM73 1294z" />
    <glyph glyph-name="Yacute" unicode="&#xdd;" horiz-adv-x="1064" 
d="M664 491v-455q0 -10 -6.5 -18t-21.5 -13t-40.5 -8t-63.5 -3q-39 0 -64 3t-40.5 8t-21.5 13t-6 18v455l-354 705q-19 37 -24.5 57.5t6 31t42.5 13t86 2.5q46 0 73.5 -2t43.5 -7.5t23.5 -14.5t14.5 -23l144 -318q21 -46 41.5 -97t41.5 -107h2q19 54 39 105t39 97l142 316
q5 16 12.5 25.5t22.5 15.5t41 8t69 2q57 0 88.5 -2.5t43 -13t5.5 -31.5t-24 -57zM639 1643q13 15 25.5 24t30 14t42.5 6.5t62 1.5q46 0 71.5 -6t35 -15.5t4.5 -21.5t-19 -25l-222 -200q-10 -9 -20.5 -15.5t-25.5 -11t-36 -6.5t-52 -2q-34 0 -54.5 3t-29 9.5t-6.5 16.5t14 24
zM342 1294z" />
    <glyph glyph-name="Ycircumflex" unicode="&#x176;" horiz-adv-x="1064" 
d="M664 491v-455q0 -10 -6.5 -18t-21.5 -13t-40.5 -8t-63.5 -3q-39 0 -64 3t-40.5 8t-21.5 13t-6 18v455l-354 705q-19 37 -24.5 57.5t6 31t42.5 13t86 2.5q46 0 73.5 -2t43.5 -7.5t23.5 -14.5t14.5 -23l144 -318q21 -46 41.5 -97t41.5 -107h2q19 54 39 105t39 97l142 316
q5 16 12.5 25.5t22.5 15.5t41 8t69 2q57 0 88.5 -2.5t43 -13t5.5 -31.5t-24 -57zM531 1689q32 0 54 -1t37 -5.5t27 -12.5t25 -22l198 -214q13 -14 15.5 -23.5t-6 -15t-29.5 -7.5t-56 -2q-41 0 -67 1.5t-41.5 5t-24 9.5t-16.5 15l-118 137l-122 -134q-9 -11 -17.5 -17
t-24 -10t-40.5 -5.5t-67 -1.5q-34 0 -54 2.5t-28.5 8t-6.5 14.5t14 23l195 214q11 13 24 21t30.5 12.5t41.5 6t57 1.5zM67 1294z" />
    <glyph glyph-name="Ydieresis" unicode="&#x178;" horiz-adv-x="1064" 
d="M664 491v-455q0 -10 -6.5 -18t-21.5 -13t-40.5 -8t-63.5 -3q-39 0 -64 3t-40.5 8t-21.5 13t-6 18v455l-354 705q-19 37 -24.5 57.5t6 31t42.5 13t86 2.5q46 0 73.5 -2t43.5 -7.5t23.5 -14.5t14.5 -23l144 -318q21 -46 41.5 -97t41.5 -107h2q19 54 39 105t39 97l142 316
q5 16 12.5 25.5t22.5 15.5t41 8t69 2q57 0 88.5 -2.5t43 -13t5.5 -31.5t-24 -57zM450 1534q0 -70 -27.5 -98t-104.5 -28t-104 27t-27 95q0 71 28 98.5t104 27.5q78 0 104.5 -26.5t26.5 -95.5zM887 1534q0 -70 -28 -98t-105 -28t-103.5 27t-26.5 95q0 71 27.5 98.5
t104.5 27.5t104 -26.5t27 -95.5zM85 1294z" />
    <glyph glyph-name="Z" unicode="Z" horiz-adv-x="979" 
d="M936 104q0 -29 -2.5 -49t-7.5 -32.5t-12.5 -17.5t-16.5 -5h-763q-40 0 -61.5 23t-21.5 67v44q0 20 2.5 36.5t8.5 33.5t17.5 37t28.5 48l502 796h-498q-12 0 -20.5 5.5t-14 17.5t-8 32t-2.5 48q0 30 2.5 50.5t8 33t14 17.5t20.5 5h715q41 0 60.5 -21t19.5 -59v-49
q0 -27 -2.5 -46.5t-9 -38t-17.5 -38t-28 -46.5l-494 -785h541q19 0 29 -24t10 -83z" />
    <glyph glyph-name="Zacute" unicode="&#x179;" horiz-adv-x="979" 
d="M936 104q0 -29 -2.5 -49t-7.5 -32.5t-12.5 -17.5t-16.5 -5h-763q-40 0 -61.5 23t-21.5 67v44q0 20 2.5 36.5t8.5 33.5t17.5 37t28.5 48l502 796h-498q-12 0 -20.5 5.5t-14 17.5t-8 32t-2.5 48q0 30 2.5 50.5t8 33t14 17.5t20.5 5h715q41 0 60.5 -21t19.5 -59v-49
q0 -27 -2.5 -46.5t-9 -38t-17.5 -38t-28 -46.5l-494 -785h541q19 0 29 -24t10 -83zM560 1643q13 15 25.5 24t30 14t42.5 6.5t62 1.5q46 0 71.5 -6t35 -15.5t4.5 -21.5t-19 -25l-222 -200q-10 -9 -20.5 -15.5t-25.5 -11t-36 -6.5t-52 -2q-34 0 -54.5 3t-29 9.5t-6.5 16.5
t14 24zM263 1294z" />
    <glyph glyph-name="Zcaron" unicode="&#x17d;" horiz-adv-x="979" 
d="M936 104q0 -29 -2.5 -49t-7.5 -32.5t-12.5 -17.5t-16.5 -5h-763q-40 0 -61.5 23t-21.5 67v44q0 20 2.5 36.5t8.5 33.5t17.5 37t28.5 48l502 796h-498q-12 0 -20.5 5.5t-14 17.5t-8 32t-2.5 48q0 30 2.5 50.5t8 33t14 17.5t20.5 5h715q41 0 60.5 -21t19.5 -59v-49
q0 -27 -2.5 -46.5t-9 -38t-17.5 -38t-28 -46.5l-494 -785h541q19 0 29 -24t10 -83zM489 1386q-32 0 -54 1t-37.5 5.5t-27 13t-24.5 21.5l-198 214q-13 15 -15.5 24.5t6 14.5t30 7t55.5 2q41 0 67 -1.5t41.5 -5t24 -9.5t16.5 -15l118 -137l123 135q8 10 16.5 16.5t24 10
t40.5 5t67 1.5q34 0 54 -2.5t28.5 -8t6 -15t-13.5 -22.5l-195 -214q-11 -13 -24 -21t-30.5 -12.5t-41 -6t-57.5 -1.5zM30 1294z" />
    <glyph glyph-name="Zdotaccent" unicode="&#x17b;" horiz-adv-x="979" 
d="M936 104q0 -29 -2.5 -49t-7.5 -32.5t-12.5 -17.5t-16.5 -5h-763q-40 0 -61.5 23t-21.5 67v44q0 20 2.5 36.5t8.5 33.5t17.5 37t28.5 48l502 796h-498q-12 0 -20.5 5.5t-14 17.5t-8 32t-2.5 48q0 30 2.5 50.5t8 33t14 17.5t20.5 5h715q41 0 60.5 -21t19.5 -59v-49
q0 -27 -2.5 -46.5t-9 -38t-17.5 -38t-28 -46.5l-494 -785h541q19 0 29 -24t10 -83zM633 1534q0 -71 -29.5 -99.5t-109.5 -28.5t-109 27.5t-29 95.5q0 72 30 100t110 28t108.5 -27t28.5 -96zM254 1294z" />
    <glyph glyph-name="A.c2sc" horiz-adv-x="1095" 
d="M1067 95q11 -35 15 -55t-7 -30.5t-40.5 -13t-84.5 -2.5q-49 0 -77 1.5t-42 5t-19.5 11t-9.5 20.5l-65 190h-410l-61 -184q-5 -14 -11.5 -22.5t-21 -13.5t-41 -6.5t-69.5 -1.5q-45 0 -69.5 3t-34 14t-6 32t14.5 55l334 921q6 16 14.5 25.5t26.5 14.5t49 7t82 2
q41 0 70.5 -0.5t50 -2.5t33.5 -5.5t21.5 -9.5t13.5 -14.5t9 -20.5zM534 850h-2l-145 -436h293z" />
    <glyph glyph-name="Agrave.c2sc" horiz-adv-x="1095" 
d="M1067 95q11 -35 15 -55t-7 -30.5t-40.5 -13t-84.5 -2.5q-49 0 -77 1.5t-42 5t-19.5 11t-9.5 20.5l-65 190h-410l-61 -184q-5 -14 -11.5 -22.5t-21 -13.5t-41 -6.5t-69.5 -1.5q-45 0 -69.5 3t-34 14t-6 32t14.5 55l334 921q6 16 14.5 25.5t26.5 14.5t49 7t82 2
q41 0 70.5 -0.5t50 -2.5t33.5 -5.5t21.5 -9.5t13.5 -14.5t9 -20.5zM534 850h-2l-145 -436h293zM621 1232q10 -14 12.5 -24t-6 -16.5t-28.5 -9.5t-55 -3q-30 0 -49.5 2t-33.5 6.5t-23.5 11t-18.5 16.5l-208 215q-12 12 -15 23t7.5 19.5t37.5 13.5t72 5q36 0 59 -1.5
t39.5 -6.5t27.5 -13.5t21 -21.5zM93 1062z" />
    <glyph glyph-name="Aacute.c2sc" horiz-adv-x="1095" 
d="M1067 95q11 -35 15 -55t-7 -30.5t-40.5 -13t-84.5 -2.5q-49 0 -77 1.5t-42 5t-19.5 11t-9.5 20.5l-65 190h-410l-61 -184q-5 -14 -11.5 -22.5t-21 -13.5t-41 -6.5t-69.5 -1.5q-45 0 -69.5 3t-34 14t-6 32t14.5 55l334 921q6 16 14.5 25.5t26.5 14.5t49 7t82 2
q41 0 70.5 -0.5t50 -2.5t33.5 -5.5t21.5 -9.5t13.5 -14.5t9 -20.5zM534 850h-2l-145 -436h293zM614 1448q9 13 20 21.5t27.5 13.5t40.5 6.5t59 1.5q46 0 72 -5t36.5 -13.5t7.5 -19.5t-15 -23l-208 -215q-8 -10 -18 -16.5t-23.5 -11t-33.5 -6.5t-50 -2q-35 0 -55.5 3
t-28.5 9.5t-6 16.5t12 24zM336 1062z" />
    <glyph glyph-name="Acircumflex.c2sc" horiz-adv-x="1095" 
d="M1067 95q11 -35 15 -55t-7 -30.5t-40.5 -13t-84.5 -2.5q-49 0 -77 1.5t-42 5t-19.5 11t-9.5 20.5l-65 190h-410l-61 -184q-5 -14 -11.5 -22.5t-21 -13.5t-41 -6.5t-69.5 -1.5q-45 0 -69.5 3t-34 14t-6 32t14.5 55l334 921q6 16 14.5 25.5t26.5 14.5t49 7t82 2
q41 0 70.5 -0.5t50 -2.5t33.5 -5.5t21.5 -9.5t13.5 -14.5t9 -20.5zM534 850h-2l-145 -436h293zM543 1491q32 0 53.5 -1.5t36.5 -5.5t25.5 -11t19.5 -18l178 -219q13 -17 17 -28t-4 -17t-29 -9t-58 -3q-36 0 -58.5 2t-36 5.5t-21.5 10t-15 15.5l-110 144l-113 -142
q-8 -11 -15.5 -17.5t-21.5 -10.5t-36.5 -5.5t-57.5 -1.5q-36 0 -57 3t-29 9.5t-4 17.5t17 27l176 219q9 11 20 18t27.5 11t40 5.5t55.5 1.5zM104 1062z" />
    <glyph glyph-name="Atilde.c2sc" horiz-adv-x="1095" 
d="M1067 95q11 -35 15 -55t-7 -30.5t-40.5 -13t-84.5 -2.5q-49 0 -77 1.5t-42 5t-19.5 11t-9.5 20.5l-65 190h-410l-61 -184q-5 -14 -11.5 -22.5t-21 -13.5t-41 -6.5t-69.5 -1.5q-45 0 -69.5 3t-34 14t-6 32t14.5 55l334 921q6 16 14.5 25.5t26.5 14.5t49 7t82 2
q41 0 70.5 -0.5t50 -2.5t33.5 -5.5t21.5 -9.5t13.5 -14.5t9 -20.5zM534 850h-2l-145 -436h293zM752 1437q0 15 17.5 20.5t61.5 5.5q45 0 60 -7.5t15 -29.5q0 -57 -14.5 -102.5t-42 -76.5t-68 -48t-93.5 -17q-57 0 -96.5 16.5t-70.5 36.5t-56.5 36.5t-55.5 16.5
q-34 0 -48.5 -22.5t-14.5 -57.5q0 -16 -18.5 -21t-60.5 -5q-45 0 -60 7.5t-15 30.5q0 58 15 103t43 76.5t68.5 47.5t91.5 16q57 0 96.5 -16t70.5 -36.5t57 -37t55 -16.5q30 0 46.5 20t16.5 60zM92 1062z" />
    <glyph glyph-name="Adieresis.c2sc" horiz-adv-x="1095" 
d="M1067 95q11 -35 15 -55t-7 -30.5t-40.5 -13t-84.5 -2.5q-49 0 -77 1.5t-42 5t-19.5 11t-9.5 20.5l-65 190h-410l-61 -184q-5 -14 -11.5 -22.5t-21 -13.5t-41 -6.5t-69.5 -1.5q-45 0 -69.5 3t-34 14t-6 32t14.5 55l334 921q6 16 14.5 25.5t26.5 14.5t49 7t82 2
q41 0 70.5 -0.5t50 -2.5t33.5 -5.5t21.5 -9.5t13.5 -14.5t9 -20.5zM534 850h-2l-145 -436h293zM467 1325q0 -70 -27 -97.5t-103 -27.5t-102.5 26.5t-26.5 94.5q0 71 27.5 98t102.5 27q76 0 102.5 -26t26.5 -95zM880 1325q0 -70 -27 -97.5t-103 -27.5q-75 0 -101.5 26.5
t-26.5 94.5q0 71 27 98t102 27q77 0 103 -26t26 -95zM106 1062z" />
    <glyph glyph-name="Amacron.c2sc" horiz-adv-x="1095" 
d="M1067 95q11 -35 15 -55t-7 -30.5t-40.5 -13t-84.5 -2.5q-49 0 -77 1.5t-42 5t-19.5 11t-9.5 20.5l-65 190h-410l-61 -184q-5 -14 -11.5 -22.5t-21 -13.5t-41 -6.5t-69.5 -1.5q-45 0 -69.5 3t-34 14t-6 32t14.5 55l334 921q6 16 14.5 25.5t26.5 14.5t49 7t82 2
q41 0 70.5 -0.5t50 -2.5t33.5 -5.5t21.5 -9.5t13.5 -14.5t9 -20.5zM534 850h-2l-145 -436h293zM818 1414q11 0 19 -4.5t13 -15.5t7 -29t2 -43q0 -26 -2 -43.5t-7 -28t-13 -15.5t-19 -5h-550q-12 0 -20.5 5t-13.5 15.5t-7.5 28t-2.5 43.5q0 25 2.5 42.5t7.5 28.5t13.5 16
t20.5 5h550zM122 1062z" />
    <glyph glyph-name="Abreve.c2sc" horiz-adv-x="1095" 
d="M1067 95q11 -35 15 -55t-7 -30.5t-40.5 -13t-84.5 -2.5q-49 0 -77 1.5t-42 5t-19.5 11t-9.5 20.5l-65 190h-410l-61 -184q-5 -14 -11.5 -22.5t-21 -13.5t-41 -6.5t-69.5 -1.5q-45 0 -69.5 3t-34 14t-6 32t14.5 55l334 921q6 16 14.5 25.5t26.5 14.5t49 7t82 2
q41 0 70.5 -0.5t50 -2.5t33.5 -5.5t21.5 -9.5t13.5 -14.5t9 -20.5zM534 850h-2l-145 -436h293zM666 1454q3 21 20.5 30t62.5 9q52 0 69.5 -7.5t17.5 -27.5q0 -66 -18.5 -117t-55.5 -86.5t-92 -54.5t-130 -19q-78 0 -134 19t-92 55t-53 87t-17 115q0 9 4 16t13.5 11.5
t25.5 6.5t40 2q26 0 43 -2t26.5 -6.5t14 -12t5.5 -17.5q2 -26 10 -47t23 -36.5t37.5 -24t53.5 -8.5q59 0 90 30t36 85zM142 1062z" />
    <glyph glyph-name="Aring.c2sc" horiz-adv-x="1095" 
d="M1067 95q11 -35 15 -55t-7 -30.5t-40.5 -13t-84.5 -2.5q-49 0 -77 1.5t-42 5t-19.5 11t-9.5 20.5l-65 190h-410l-61 -184q-5 -14 -11.5 -22.5t-21 -13.5t-41 -6.5t-69.5 -1.5q-45 0 -69.5 3t-34 14t-6 32t14.5 55l334 921q6 16 14.5 25.5t26.5 14.5t49 7t82 2
q41 0 70.5 -0.5t50 -2.5t33.5 -5.5t21.5 -9.5t13.5 -14.5t9 -20.5zM534 850h-2l-145 -436h293zM774 1357q0 -48 -16 -85.5t-46.5 -63t-75 -39.5t-102.5 -14t-101.5 13t-72.5 38t-43 61t-14 83t16 84.5t46.5 62.5t75 38.5t102.5 13.5q114 0 172.5 -49t58.5 -143zM623 1352
q0 19 -5 35t-15.5 27t-26.5 17.5t-39 6.5q-41 0 -61.5 -22t-20.5 -61q0 -42 20 -65t66 -23q41 0 61.5 22.5t20.5 62.5zM201 1062z" />
    <glyph glyph-name="Aringacute.c2sc" horiz-adv-x="1095" 
d="M1067 95q11 -35 15 -55t-7 -30.5t-40.5 -13t-84.5 -2.5q-49 0 -77 1.5t-42 5t-19.5 11t-9.5 20.5l-65 190h-410l-61 -184q-5 -14 -11.5 -22.5t-21 -13.5t-41 -6.5t-69.5 -1.5q-45 0 -69.5 3t-34 14t-6 32t14.5 55l334 921q6 16 14.5 25.5t26.5 14.5t49 7t82 2
q41 0 70.5 -0.5t50 -2.5t33.5 -5.5t21.5 -9.5t13.5 -14.5t9 -20.5zM534 850h-2l-145 -436h293zM566 1717q10 10 20 17.5t24 11t34 5.5t49 2q43 0 67.5 -4.5t35 -11.5t9 -15.5t-11.5 -15.5l-196 -154q-9 -8 -18 -13.5t-21 -9.5t-29 -5.5t-43 -1.5q-34 0 -52.5 2.5t-26.5 7.5
t-5 13.5t13 20.5zM765 1313q0 -40 -15 -72t-44 -54.5t-71 -35t-96 -12.5q-56 0 -98 11.5t-70.5 33t-42.5 52.5t-14 71t15 72t44.5 54.5t72.5 34.5t98 12q110 0 165.5 -43t55.5 -124zM621 1308q0 16 -4.5 30t-14.5 24.5t-26 16t-37 5.5q-40 0 -60 -20t-20 -53q0 -34 19 -55
t64 -21q39 0 59 20.5t20 52.5zM218 1062z" />
    <glyph glyph-name="Aogonek.c2sc" horiz-adv-x="1095" 
d="M1098 -260q0 -22 -2 -36t-6.5 -23t-11.5 -14t-17 -7q-15 -6 -31.5 -10t-36.5 -8t-43 -5.5t-52 -1.5q-52 0 -93.5 11t-70 32.5t-43.5 53t-15 72.5q0 44 24 86t65 81l45 43l-73 208h-410l-61 -184q-5 -14 -11.5 -22.5t-21 -13.5t-41 -6.5t-69.5 -1.5q-45 0 -69.5 3t-34 14
t-6 32t14.5 55l334 921q6 16 14.5 25.5t26.5 14.5t49 7t82 2q62 0 98.5 -1.5t56.5 -7t29.5 -16t15.5 -28.5l325 -897q9 -24 12.5 -41t-0.5 -31.5t-15.5 -30t-32.5 -36.5l-49 -50q-30 -29 -41.5 -46.5t-11.5 -35.5q0 -21 16 -31.5t48 -10.5h78q21 0 28 -13.5t7 -51.5z
M534 850h-2l-145 -436h293z" />
    <glyph glyph-name="AE.c2sc" horiz-adv-x="1423" 
d="M1324 97q0 -27 -2 -45.5t-6.5 -30t-11 -16.5t-14.5 -5h-570q-31 0 -51.5 18t-20.5 56v135h-333l-85 -171q-6 -14 -13 -22.5t-22.5 -13.5t-41 -6.5t-69.5 -1.5q-46 0 -71 3t-34 14t-3.5 32t21.5 55l462 914q8 16 17.5 26t28 15.5t49.5 7t81 1.5h652q8 0 14.5 -4.5
t10.5 -15.5t6 -30t2 -47q0 -27 -2 -45t-6 -29.5t-10.5 -16.5t-14.5 -5h-383v-225h326q8 0 14.5 -4.5t11 -16t6.5 -30t2 -45.5q0 -26 -2 -44.5t-6.5 -29.5t-11 -15.5t-14.5 -4.5h-326v-261h386q8 0 14.5 -4.5t11 -16t6.5 -30t2 -45.5zM648 869h-16l-233 -469h249v469z" />
    <glyph glyph-name="AEacute.c2sc" horiz-adv-x="1423" 
d="M1324 97q0 -27 -2 -45.5t-6.5 -30t-11 -16.5t-14.5 -5h-570q-31 0 -51.5 18t-20.5 56v135h-333l-85 -171q-6 -14 -13 -22.5t-22.5 -13.5t-41 -6.5t-69.5 -1.5q-46 0 -71 3t-34 14t-3.5 32t21.5 55l462 914q8 16 17.5 26t28 15.5t49.5 7t81 1.5h652q8 0 14.5 -4.5
t10.5 -15.5t6 -30t2 -47q0 -27 -2 -45t-6 -29.5t-10.5 -16.5t-14.5 -5h-383v-225h326q8 0 14.5 -4.5t11 -16t6.5 -30t2 -45.5q0 -26 -2 -44.5t-6.5 -29.5t-11 -15.5t-14.5 -4.5h-326v-261h386q8 0 14.5 -4.5t11 -16t6.5 -30t2 -45.5zM648 869h-16l-233 -469h249v469z
M760 1448q9 13 20 21.5t27.5 13.5t40.5 6.5t59 1.5q46 0 72 -5t36.5 -13.5t7.5 -19.5t-15 -23l-208 -215q-8 -10 -18 -16.5t-23.5 -11t-33.5 -6.5t-50 -2q-35 0 -55.5 3t-28.5 9.5t-6 16.5t12 24zM482 1062z" />
    <glyph glyph-name="B.c2sc" horiz-adv-x="1080" 
d="M1008 323q0 -60 -17.5 -107t-49 -83t-74.5 -61t-93.5 -41.5t-107.5 -23.5t-127 -7h-334q-30 0 -50.5 18t-20.5 56v914q0 38 20.5 56t50.5 18h337q101 0 173.5 -15t122.5 -48t77 -84t27 -123q0 -39 -10.5 -73.5t-30.5 -63t-48.5 -49.5t-64.5 -33q47 -8 87 -27.5t69.5 -51
t46.5 -74.5t17 -97zM682 756q0 29 -9 52t-28 39t-46.5 24t-75.5 8h-138v-252h147q47 0 73 10.5t43 28t25.5 41t8.5 49.5zM732 316q0 32 -10.5 57.5t-32 43.5t-55.5 27.5t-93 9.5h-156v-270h179q47 0 76 9t49.5 26t31.5 41.5t11 55.5z" />
    <glyph glyph-name="C.c2sc" horiz-adv-x="971" 
d="M907 164q0 -41 -4.5 -65t-19 -38.5t-40 -28.5t-61.5 -26t-81.5 -19.5t-98.5 -7.5q-117 0 -211.5 34t-161.5 102t-103 170t-36 237q0 136 38.5 241t107 176t164.5 107.5t212 36.5q43 0 84.5 -7t77 -18.5t63.5 -26.5t42 -29t20 -38.5t6 -74.5q0 -29 -2.5 -48t-6.5 -31
t-10.5 -17t-14.5 -5q-12 0 -30 13.5t-47 29.5t-70 29.5t-98 13.5q-62 0 -110 -24.5t-80.5 -69.5t-49.5 -108t-17 -139q0 -90 20 -155.5t56.5 -107t87 -61t112.5 -19.5q52 0 90.5 12.5t66.5 27t47.5 27t31.5 12.5q7 0 12 -4t8 -15t4.5 -31.5t1.5 -54.5z" />
    <glyph glyph-name="Cacute.c2sc" horiz-adv-x="971" 
d="M907 164q0 -41 -4.5 -65t-19 -38.5t-40 -28.5t-61.5 -26t-81.5 -19.5t-98.5 -7.5q-117 0 -211.5 34t-161.5 102t-103 170t-36 237q0 136 38.5 241t107 176t164.5 107.5t212 36.5q43 0 84.5 -7t77 -18.5t63.5 -26.5t42 -29t20 -38.5t6 -74.5q0 -29 -2.5 -48t-6.5 -31
t-10.5 -17t-14.5 -5q-12 0 -30 13.5t-47 29.5t-70 29.5t-98 13.5q-62 0 -110 -24.5t-80.5 -69.5t-49.5 -108t-17 -139q0 -90 20 -155.5t56.5 -107t87 -61t112.5 -19.5q52 0 90.5 12.5t66.5 27t47.5 27t31.5 12.5q7 0 12 -4t8 -15t4.5 -31.5t1.5 -54.5zM614 1448
q9 13 20 21.5t27.5 13.5t40.5 6.5t59 1.5q46 0 72 -5t36.5 -13.5t7.5 -19.5t-15 -23l-208 -215q-8 -10 -18 -16.5t-23.5 -11t-33.5 -6.5t-50 -2q-35 0 -55.5 3t-28.5 9.5t-6 16.5t12 24zM336 1062z" />
    <glyph glyph-name="Ccircumflex.c2sc" horiz-adv-x="971" 
d="M907 164q0 -41 -4.5 -65t-19 -38.5t-40 -28.5t-61.5 -26t-81.5 -19.5t-98.5 -7.5q-117 0 -211.5 34t-161.5 102t-103 170t-36 237q0 136 38.5 241t107 176t164.5 107.5t212 36.5q43 0 84.5 -7t77 -18.5t63.5 -26.5t42 -29t20 -38.5t6 -74.5q0 -29 -2.5 -48t-6.5 -31
t-10.5 -17t-14.5 -5q-12 0 -30 13.5t-47 29.5t-70 29.5t-98 13.5q-62 0 -110 -24.5t-80.5 -69.5t-49.5 -108t-17 -139q0 -90 20 -155.5t56.5 -107t87 -61t112.5 -19.5q52 0 90.5 12.5t66.5 27t47.5 27t31.5 12.5q7 0 12 -4t8 -15t4.5 -31.5t1.5 -54.5zM559 1491
q32 0 53.5 -1.5t36.5 -5.5t25.5 -11t19.5 -18l178 -219q13 -17 17 -28t-4 -17t-29 -9t-58 -3q-36 0 -58.5 2t-36 5.5t-21.5 10t-15 15.5l-110 144l-113 -142q-8 -11 -15.5 -17.5t-21.5 -10.5t-36.5 -5.5t-57.5 -1.5q-36 0 -57 3t-29 9.5t-4 17.5t17 27l176 219q9 11 20 18
t27.5 11t40 5.5t55.5 1.5zM120 1062z" />
    <glyph glyph-name="Ccaron.c2sc" horiz-adv-x="971" 
d="M907 164q0 -41 -4.5 -65t-19 -38.5t-40 -28.5t-61.5 -26t-81.5 -19.5t-98.5 -7.5q-117 0 -211.5 34t-161.5 102t-103 170t-36 237q0 136 38.5 241t107 176t164.5 107.5t212 36.5q43 0 84.5 -7t77 -18.5t63.5 -26.5t42 -29t20 -38.5t6 -74.5q0 -29 -2.5 -48t-6.5 -31
t-10.5 -17t-14.5 -5q-12 0 -30 13.5t-47 29.5t-70 29.5t-98 13.5q-62 0 -110 -24.5t-80.5 -69.5t-49.5 -108t-17 -139q0 -90 20 -155.5t56.5 -107t87 -61t112.5 -19.5q52 0 90.5 12.5t66.5 27t47.5 27t31.5 12.5q7 0 12 -4t8 -15t4.5 -31.5t1.5 -54.5zM566 1179
q-32 0 -53.5 1.5t-36.5 6t-25.5 11.5t-20.5 18l-178 218q-13 17 -17 28.5t4 17.5t29 8.5t58 2.5t59 -1t35.5 -5t21 -10t14.5 -16l112 -144l112 143q8 10 16 17t21.5 10.5t35.5 4.5t58 1q37 0 57.5 -3t28.5 -9t4 -17.5t-17 -27.5l-176 -218q-9 -11 -20 -18t-27.5 -11.5
t-39.5 -6t-55 -1.5zM131 1062z" />
    <glyph glyph-name="Cdotaccent.c2sc" horiz-adv-x="971" 
d="M907 164q0 -41 -4.5 -65t-19 -38.5t-40 -28.5t-61.5 -26t-81.5 -19.5t-98.5 -7.5q-117 0 -211.5 34t-161.5 102t-103 170t-36 237q0 136 38.5 241t107 176t164.5 107.5t212 36.5q43 0 84.5 -7t77 -18.5t63.5 -26.5t42 -29t20 -38.5t6 -74.5q0 -29 -2.5 -48t-6.5 -31
t-10.5 -17t-14.5 -5q-12 0 -30 13.5t-47 29.5t-70 29.5t-98 13.5q-62 0 -110 -24.5t-80.5 -69.5t-49.5 -108t-17 -139q0 -90 20 -155.5t56.5 -107t87 -61t112.5 -19.5q52 0 90.5 12.5t66.5 27t47.5 27t31.5 12.5q7 0 12 -4t8 -15t4.5 -31.5t1.5 -54.5zM712 1325
q0 -71 -29.5 -99t-109.5 -28t-109 27t-29 96q0 71 30 99t110 28t108.5 -27t28.5 -96zM333 1062z" />
    <glyph glyph-name="Ccedilla.c2sc" horiz-adv-x="971" 
d="M684 -16l23 -50q17 -39 25.5 -68t8.5 -56q0 -46 -16.5 -79t-46 -54t-68.5 -31.5t-84 -10.5q-43 0 -80.5 6t-62.5 13t-35.5 12t-14.5 13t-6 20.5t-2 34.5q0 40 7.5 55.5t27.5 15.5h116q28 0 42.5 12.5t14.5 34.5q0 12 -5 27t-12 31l-35 79q-127 21 -216 92.5t-132 184.5
t-43 256q0 136 38.5 241t107 176t164.5 107.5t212 36.5q43 0 84.5 -7t77 -18.5t63.5 -26.5t42 -29t20 -38.5t6 -74.5q0 -29 -2.5 -48t-6.5 -31t-10.5 -17t-14.5 -5q-12 0 -30 13.5t-47 29.5t-70 29.5t-98 13.5q-62 0 -110 -24.5t-80.5 -69.5t-49.5 -108t-17 -139
q0 -90 20 -155.5t56.5 -107t87 -61t112.5 -19.5q52 0 90.5 12.5t66.5 27t47.5 27t31.5 12.5q7 0 12 -4t8 -15t4.5 -31.5t1.5 -54.5q0 -41 -4.5 -65t-19 -38.5t-42 -29.5t-64 -27.5t-93.5 -19.5z" />
    <glyph glyph-name="D.c2sc" horiz-adv-x="1169" 
d="M1082 546q0 -149 -40.5 -253t-115 -169t-181 -94.5t-250.5 -29.5h-290q-30 0 -50.5 18t-20.5 56v914q0 38 20.5 56t50.5 18h314q142 0 244.5 -32t173.5 -96.5t108 -161.5t37 -226zM816 538q0 70 -16.5 130t-52.5 104.5t-94 69.5t-154 25h-107v-671h107q88 0 145 22
t95.5 65.5t57.5 107.5t19 147z" />
    <glyph glyph-name="Dcaron.c2sc" horiz-adv-x="1169" 
d="M1082 546q0 -149 -40.5 -253t-115 -169t-181 -94.5t-250.5 -29.5h-290q-30 0 -50.5 18t-20.5 56v914q0 38 20.5 56t50.5 18h314q142 0 244.5 -32t173.5 -96.5t108 -161.5t37 -226zM816 538q0 70 -16.5 130t-52.5 104.5t-94 69.5t-154 25h-107v-671h107q88 0 145 22
t95.5 65.5t57.5 107.5t19 147zM564 1179q-32 0 -53.5 1.5t-36.5 6t-25.5 11.5t-20.5 18l-178 218q-13 17 -17 28.5t4 17.5t29 8.5t58 2.5t59 -1t35.5 -5t21 -10t14.5 -16l112 -144l112 143q8 10 16 17t21.5 10.5t35.5 4.5t58 1q37 0 57.5 -3t28.5 -9t4 -17.5t-17 -27.5
l-176 -218q-9 -11 -20 -18t-27.5 -11.5t-39.5 -6t-55 -1.5zM129 1062z" />
    <glyph glyph-name="Dcroat.c2sc" horiz-adv-x="1190" 
d="M1102 546q0 -149 -40.5 -253t-115.5 -169t-181.5 -94.5t-249.5 -29.5h-294q-31 0 -51 18t-20 56v380h-78q-8 0 -14.5 4t-10.5 14.5t-6.5 29t-2.5 46.5t2.5 47t6.5 29.5t10 15t15 4.5h78v344q0 38 20 56t51 18h318q142 0 244.5 -32t173.5 -96.5t108 -161.5t37 -226z
M835 538q0 70 -16 130.5t-52 105.5t-94 70t-152 25h-113v-225h147q9 0 15.5 -4.5t10.5 -16t6.5 -30t2.5 -45.5q0 -26 -2.5 -44.5t-6.5 -29.5t-10.5 -15.5t-15.5 -4.5h-147v-260h112q86 0 143.5 22.5t95.5 66t57 108t19 147.5z" />
    <glyph glyph-name="Eth.c2sc" horiz-adv-x="1190" 
d="M1102 546q0 -149 -40.5 -253t-115.5 -169t-181.5 -94.5t-249.5 -29.5h-294q-31 0 -51 18t-20 56v380h-78q-8 0 -14.5 4t-10.5 14.5t-6.5 29t-2.5 46.5t2.5 47t6.5 29.5t10 15t15 4.5h78v344q0 38 20 56t51 18h318q142 0 244.5 -32t173.5 -96.5t108 -161.5t37 -226z
M835 538q0 70 -16 130.5t-52 105.5t-94 70t-152 25h-113v-225h147q9 0 15.5 -4.5t10.5 -16t6.5 -30t2.5 -45.5q0 -26 -2.5 -44.5t-6.5 -29.5t-10.5 -15.5t-15.5 -4.5h-147v-260h112q86 0 143.5 22.5t95.5 66t57 108t19 147.5z" />
    <glyph glyph-name="E.c2sc" horiz-adv-x="911" 
d="M813 97q0 -27 -2.5 -45.5t-6.5 -30t-10.5 -16.5t-14.5 -5h-574q-30 0 -50.5 18t-20.5 56v914q0 38 20.5 56t50.5 18h570q8 0 14.5 -4.5t10.5 -15.5t6 -30t2 -47q0 -27 -2 -45t-6 -29.5t-10.5 -16.5t-14.5 -5h-383v-228h325q8 0 15 -4.5t11.5 -15.5t6.5 -30t2 -46
q0 -26 -2 -44.5t-6.5 -29.5t-11.5 -15.5t-15 -4.5h-325v-258h387q8 0 14.5 -4.5t10.5 -16t6.5 -30t2.5 -45.5z" />
    <glyph glyph-name="Egrave.c2sc" horiz-adv-x="911" 
d="M813 97q0 -27 -2.5 -45.5t-6.5 -30t-10.5 -16.5t-14.5 -5h-574q-30 0 -50.5 18t-20.5 56v914q0 38 20.5 56t50.5 18h570q8 0 14.5 -4.5t10.5 -15.5t6 -30t2 -47q0 -27 -2 -45t-6 -29.5t-10.5 -16.5t-14.5 -5h-383v-228h325q8 0 15 -4.5t11.5 -15.5t6.5 -30t2 -46
q0 -26 -2 -44.5t-6.5 -29.5t-11.5 -15.5t-15 -4.5h-325v-258h387q8 0 14.5 -4.5t10.5 -16t6.5 -30t2.5 -45.5zM564 1232q10 -14 12.5 -24t-6 -16.5t-28.5 -9.5t-55 -3q-30 0 -49.5 2t-33.5 6.5t-23.5 11t-18.5 16.5l-208 215q-12 12 -15 23t7.5 19.5t37.5 13.5t72 5
q36 0 59 -1.5t39.5 -6.5t27.5 -13.5t21 -21.5zM36 1062z" />
    <glyph glyph-name="Eacute.c2sc" horiz-adv-x="911" 
d="M813 97q0 -27 -2.5 -45.5t-6.5 -30t-10.5 -16.5t-14.5 -5h-574q-30 0 -50.5 18t-20.5 56v914q0 38 20.5 56t50.5 18h570q8 0 14.5 -4.5t10.5 -15.5t6 -30t2 -47q0 -27 -2 -45t-6 -29.5t-10.5 -16.5t-14.5 -5h-383v-228h325q8 0 15 -4.5t11.5 -15.5t6.5 -30t2 -46
q0 -26 -2 -44.5t-6.5 -29.5t-11.5 -15.5t-15 -4.5h-325v-258h387q8 0 14.5 -4.5t10.5 -16t6.5 -30t2.5 -45.5zM521 1448q9 13 20 21.5t27.5 13.5t40.5 6.5t59 1.5q46 0 72 -5t36.5 -13.5t7.5 -19.5t-15 -23l-208 -215q-8 -10 -18 -16.5t-23.5 -11t-33.5 -6.5t-50 -2
q-35 0 -55.5 3t-28.5 9.5t-6 16.5t12 24zM243 1062z" />
    <glyph glyph-name="Ecircumflex.c2sc" horiz-adv-x="911" 
d="M813 97q0 -27 -2.5 -45.5t-6.5 -30t-10.5 -16.5t-14.5 -5h-574q-30 0 -50.5 18t-20.5 56v914q0 38 20.5 56t50.5 18h570q8 0 14.5 -4.5t10.5 -15.5t6 -30t2 -47q0 -27 -2 -45t-6 -29.5t-10.5 -16.5t-14.5 -5h-383v-228h325q8 0 15 -4.5t11.5 -15.5t6.5 -30t2 -46
q0 -26 -2 -44.5t-6.5 -29.5t-11.5 -15.5t-15 -4.5h-325v-258h387q8 0 14.5 -4.5t10.5 -16t6.5 -30t2.5 -45.5zM471 1491q32 0 53.5 -1.5t36.5 -5.5t25.5 -11t19.5 -18l178 -219q13 -17 17 -28t-4 -17t-29 -9t-58 -3q-36 0 -58.5 2t-36 5.5t-21.5 10t-15 15.5l-110 144
l-113 -142q-8 -11 -15.5 -17.5t-21.5 -10.5t-36.5 -5.5t-57.5 -1.5q-36 0 -57 3t-29 9.5t-4 17.5t17 27l176 219q9 11 20 18t27.5 11t40 5.5t55.5 1.5zM32 1062z" />
    <glyph glyph-name="Ecaron.c2sc" horiz-adv-x="911" 
d="M813 97q0 -27 -2.5 -45.5t-6.5 -30t-10.5 -16.5t-14.5 -5h-574q-30 0 -50.5 18t-20.5 56v914q0 38 20.5 56t50.5 18h570q8 0 14.5 -4.5t10.5 -15.5t6 -30t2 -47q0 -27 -2 -45t-6 -29.5t-10.5 -16.5t-14.5 -5h-383v-228h325q8 0 15 -4.5t11.5 -15.5t6.5 -30t2 -46
q0 -26 -2 -44.5t-6.5 -29.5t-11.5 -15.5t-15 -4.5h-325v-258h387q8 0 14.5 -4.5t10.5 -16t6.5 -30t2.5 -45.5zM467 1179q-32 0 -53.5 1.5t-36.5 6t-25.5 11.5t-20.5 18l-178 218q-13 17 -17 28.5t4 17.5t29 8.5t58 2.5t59 -1t35.5 -5t21 -10t14.5 -16l112 -144l112 143
q8 10 16 17t21.5 10.5t35.5 4.5t58 1q37 0 57.5 -3t28.5 -9t4 -17.5t-17 -27.5l-176 -218q-9 -11 -20 -18t-27.5 -11.5t-39.5 -6t-55 -1.5zM32 1062z" />
    <glyph glyph-name="Edieresis.c2sc" horiz-adv-x="911" 
d="M813 97q0 -27 -2.5 -45.5t-6.5 -30t-10.5 -16.5t-14.5 -5h-574q-30 0 -50.5 18t-20.5 56v914q0 38 20.5 56t50.5 18h570q8 0 14.5 -4.5t10.5 -15.5t6 -30t2 -47q0 -27 -2 -45t-6 -29.5t-10.5 -16.5t-14.5 -5h-383v-228h325q8 0 15 -4.5t11.5 -15.5t6.5 -30t2 -46
q0 -26 -2 -44.5t-6.5 -29.5t-11.5 -15.5t-15 -4.5h-325v-258h387q8 0 14.5 -4.5t10.5 -16t6.5 -30t2.5 -45.5zM390 1325q0 -70 -27 -97.5t-103 -27.5t-102.5 26.5t-26.5 94.5q0 71 27.5 98t102.5 27q76 0 102.5 -26t26.5 -95zM803 1325q0 -70 -27 -97.5t-103 -27.5
q-75 0 -101.5 26.5t-26.5 94.5q0 71 27 98t102 27q77 0 103 -26t26 -95zM29 1062z" />
    <glyph glyph-name="Emacron.c2sc" horiz-adv-x="911" 
d="M813 97q0 -27 -2.5 -45.5t-6.5 -30t-10.5 -16.5t-14.5 -5h-574q-30 0 -50.5 18t-20.5 56v914q0 38 20.5 56t50.5 18h570q8 0 14.5 -4.5t10.5 -15.5t6 -30t2 -47q0 -27 -2 -45t-6 -29.5t-10.5 -16.5t-14.5 -5h-383v-228h325q8 0 15 -4.5t11.5 -15.5t6.5 -30t2 -46
q0 -26 -2 -44.5t-6.5 -29.5t-11.5 -15.5t-15 -4.5h-325v-258h387q8 0 14.5 -4.5t10.5 -16t6.5 -30t2.5 -45.5zM744 1414q11 0 19 -4.5t13 -15.5t7 -29t2 -43q0 -26 -2 -43.5t-7 -28t-13 -15.5t-19 -5h-550q-12 0 -20.5 5t-13.5 15.5t-7.5 28t-2.5 43.5q0 25 2.5 42.5
t7.5 28.5t13.5 16t20.5 5h550zM48 1062z" />
    <glyph glyph-name="Ebreve.c2sc" horiz-adv-x="911" 
d="M813 97q0 -27 -2.5 -45.5t-6.5 -30t-10.5 -16.5t-14.5 -5h-574q-30 0 -50.5 18t-20.5 56v914q0 38 20.5 56t50.5 18h570q8 0 14.5 -4.5t10.5 -15.5t6 -30t2 -47q0 -27 -2 -45t-6 -29.5t-10.5 -16.5t-14.5 -5h-383v-228h325q8 0 15 -4.5t11.5 -15.5t6.5 -30t2 -46
q0 -26 -2 -44.5t-6.5 -29.5t-11.5 -15.5t-15 -4.5h-325v-258h387q8 0 14.5 -4.5t10.5 -16t6.5 -30t2.5 -45.5zM587 1454q3 21 20.5 30t62.5 9q52 0 69.5 -7.5t17.5 -27.5q0 -66 -18.5 -117t-55.5 -86.5t-92 -54.5t-130 -19q-78 0 -134 19t-92 55t-53 87t-17 115q0 9 4 16
t13.5 11.5t25.5 6.5t40 2q26 0 43 -2t26.5 -6.5t14 -12t5.5 -17.5q2 -26 10 -47t23 -36.5t37.5 -24t53.5 -8.5q59 0 90 30t36 85zM63 1062z" />
    <glyph glyph-name="Edotaccent.c2sc" horiz-adv-x="911" 
d="M813 97q0 -27 -2.5 -45.5t-6.5 -30t-10.5 -16.5t-14.5 -5h-574q-30 0 -50.5 18t-20.5 56v914q0 38 20.5 56t50.5 18h570q8 0 14.5 -4.5t10.5 -15.5t6 -30t2 -47q0 -27 -2 -45t-6 -29.5t-10.5 -16.5t-14.5 -5h-383v-228h325q8 0 15 -4.5t11.5 -15.5t6.5 -30t2 -46
q0 -26 -2 -44.5t-6.5 -29.5t-11.5 -15.5t-15 -4.5h-325v-258h387q8 0 14.5 -4.5t10.5 -16t6.5 -30t2.5 -45.5zM610 1325q0 -71 -29.5 -99t-109.5 -28t-109 27t-29 96q0 71 30 99t110 28t108.5 -27t28.5 -96zM231 1062z" />
    <glyph glyph-name="Eogonek.c2sc" horiz-adv-x="911" 
d="M839 -259q0 -21 -2 -34.5t-6 -23t-11.5 -14.5t-18.5 -9q-32 -12 -78.5 -18.5t-95.5 -6.5q-48 0 -88.5 10.5t-69.5 32t-45.5 53t-16.5 73.5q0 43 18 77.5t59 75.5l43 43h-322q-30 0 -50.5 18t-20.5 56v914q0 38 20.5 56t50.5 18h571q8 0 14 -4.5t10 -15.5t6 -30t2 -47
q0 -27 -2 -45t-6 -29.5t-10 -16.5t-14 -5h-384v-228h326q8 0 14.5 -4.5t10.5 -15.5t6.5 -30t2.5 -46q0 -26 -2.5 -44.5t-6.5 -29.5t-10.5 -15.5t-14.5 -4.5h-326v-258h387q8 0 14.5 -4.5t10.5 -15.5t6.5 -29t2.5 -45q0 -22 -2.5 -36.5t-7.5 -26.5t-14 -22.5t-23 -23.5
l-70 -69q-23 -23 -32 -39t-9 -35q0 -18 13.5 -30t48.5 -12h86q21 0 28.5 -13.5t7.5 -50.5z" />
    <glyph glyph-name="F.c2sc" horiz-adv-x="856" 
d="M778 961q0 -53 -8 -76t-25 -23h-351v-254h324q8 0 15 -5t11.5 -16.5t7 -30t2.5 -45.5t-2.5 -45.5t-7 -30t-11.5 -16.5t-15 -5h-324v-382q0 -10 -6 -17t-21 -11.5t-40 -7t-63 -2.5t-63 2.5t-40 7t-21 11.5t-6 17v956q0 38 20.5 56t50.5 18h540q17 0 25 -22.5t8 -78.5z" />
    <glyph glyph-name="G.c2sc" horiz-adv-x="1180" 
d="M1051 897q0 -31 -2.5 -50.5t-7 -31t-10 -16.5t-11.5 -5q-17 0 -42.5 13.5t-64.5 29.5t-94 29.5t-130 13.5t-137 -24t-106.5 -69t-69.5 -109t-25 -145q0 -86 24 -151t67 -109t103 -66t131 -22q31 0 64 6.5t60 19.5v218h-187q-7 0 -13.5 5t-10.5 15.5t-6.5 28.5t-2.5 44
t2.5 44t6.5 28.5t10.5 15t13.5 4.5h378q30 0 46.5 -20t16.5 -53v-434q0 -25 -10.5 -43.5t-32.5 -25.5q-35 -13 -77 -24t-86.5 -19t-91.5 -12.5t-92 -4.5q-134 0 -240.5 36t-181 105t-114.5 170.5t-40 230.5q0 131 42 236t119.5 178t186 111.5t241.5 38.5q76 0 136.5 -9.5
t105.5 -23.5t72.5 -28.5t38 -24.5t16 -32.5t5.5 -68.5z" />
    <glyph glyph-name="Gcircumflex.c2sc" horiz-adv-x="1180" 
d="M1051 897q0 -31 -2.5 -50.5t-7 -31t-10 -16.5t-11.5 -5q-17 0 -42.5 13.5t-64.5 29.5t-94 29.5t-130 13.5t-137 -24t-106.5 -69t-69.5 -109t-25 -145q0 -86 24 -151t67 -109t103 -66t131 -22q31 0 64 6.5t60 19.5v218h-187q-7 0 -13.5 5t-10.5 15.5t-6.5 28.5t-2.5 44
t2.5 44t6.5 28.5t10.5 15t13.5 4.5h378q30 0 46.5 -20t16.5 -53v-434q0 -25 -10.5 -43.5t-32.5 -25.5q-35 -13 -77 -24t-86.5 -19t-91.5 -12.5t-92 -4.5q-134 0 -240.5 36t-181 105t-114.5 170.5t-40 230.5q0 131 42 236t119.5 178t186 111.5t241.5 38.5q76 0 136.5 -9.5
t105.5 -23.5t72.5 -28.5t38 -24.5t16 -32.5t5.5 -68.5zM635 1491q32 0 53.5 -1.5t36.5 -5.5t25.5 -11t19.5 -18l178 -219q13 -17 17 -28t-4 -17t-29 -9t-58 -3q-36 0 -58.5 2t-36 5.5t-21.5 10t-15 15.5l-110 144l-113 -142q-8 -11 -15.5 -17.5t-21.5 -10.5t-36.5 -5.5
t-57.5 -1.5q-36 0 -57 3t-29 9.5t-4 17.5t17 27l176 219q9 11 20 18t27.5 11t40 5.5t55.5 1.5zM196 1062z" />
    <glyph glyph-name="Gbreve.c2sc" horiz-adv-x="1180" 
d="M1051 897q0 -31 -2.5 -50.5t-7 -31t-10 -16.5t-11.5 -5q-17 0 -42.5 13.5t-64.5 29.5t-94 29.5t-130 13.5t-137 -24t-106.5 -69t-69.5 -109t-25 -145q0 -86 24 -151t67 -109t103 -66t131 -22q31 0 64 6.5t60 19.5v218h-187q-7 0 -13.5 5t-10.5 15.5t-6.5 28.5t-2.5 44
t2.5 44t6.5 28.5t10.5 15t13.5 4.5h378q30 0 46.5 -20t16.5 -53v-434q0 -25 -10.5 -43.5t-32.5 -25.5q-35 -13 -77 -24t-86.5 -19t-91.5 -12.5t-92 -4.5q-134 0 -240.5 36t-181 105t-114.5 170.5t-40 230.5q0 131 42 236t119.5 178t186 111.5t241.5 38.5q76 0 136.5 -9.5
t105.5 -23.5t72.5 -28.5t38 -24.5t16 -32.5t5.5 -68.5zM769 1454q3 21 20.5 30t62.5 9q52 0 69.5 -7.5t17.5 -27.5q0 -66 -18.5 -117t-55.5 -86.5t-92 -54.5t-130 -19q-78 0 -134 19t-92 55t-53 87t-17 115q0 9 4 16t13.5 11.5t25.5 6.5t40 2q26 0 43 -2t26.5 -6.5t14 -12
t5.5 -17.5q2 -26 10 -47t23 -36.5t37.5 -24t53.5 -8.5q59 0 90 30t36 85zM245 1062z" />
    <glyph glyph-name="Gdotaccent.c2sc" horiz-adv-x="1180" 
d="M1051 897q0 -31 -2.5 -50.5t-7 -31t-10 -16.5t-11.5 -5q-17 0 -42.5 13.5t-64.5 29.5t-94 29.5t-130 13.5t-137 -24t-106.5 -69t-69.5 -109t-25 -145q0 -86 24 -151t67 -109t103 -66t131 -22q31 0 64 6.5t60 19.5v218h-187q-7 0 -13.5 5t-10.5 15.5t-6.5 28.5t-2.5 44
t2.5 44t6.5 28.5t10.5 15t13.5 4.5h378q30 0 46.5 -20t16.5 -53v-434q0 -25 -10.5 -43.5t-32.5 -25.5q-35 -13 -77 -24t-86.5 -19t-91.5 -12.5t-92 -4.5q-134 0 -240.5 36t-181 105t-114.5 170.5t-40 230.5q0 131 42 236t119.5 178t186 111.5t241.5 38.5q76 0 136.5 -9.5
t105.5 -23.5t72.5 -28.5t38 -24.5t16 -32.5t5.5 -68.5zM787 1325q0 -71 -29.5 -99t-109.5 -28t-109 27t-29 96q0 71 30 99t110 28t108.5 -27t28.5 -96zM408 1062z" />
    <glyph glyph-name="Gcommaaccent.c2sc" horiz-adv-x="1180" 
d="M1051 897q0 -31 -2.5 -50.5t-7 -31t-10 -16.5t-11.5 -5q-17 0 -42.5 13.5t-64.5 29.5t-94 29.5t-130 13.5t-137 -24t-106.5 -69t-69.5 -109t-25 -145q0 -86 24 -151t67 -109t103 -66t131 -22q31 0 64 6.5t60 19.5v218h-187q-7 0 -13.5 5t-10.5 15.5t-6.5 28.5t-2.5 44
t2.5 44t6.5 28.5t10.5 15t13.5 4.5h378q30 0 46.5 -20t16.5 -53v-434q0 -25 -10.5 -43.5t-32.5 -25.5q-35 -13 -77 -24t-86.5 -19t-91.5 -12.5t-92 -4.5q-134 0 -240.5 36t-181 105t-114.5 170.5t-40 230.5q0 131 42 236t119.5 178t186 111.5t241.5 38.5q76 0 136.5 -9.5
t105.5 -23.5t72.5 -28.5t38 -24.5t16 -32.5t5.5 -68.5zM516 -123q3 11 11 19.5t23.5 13.5t41 7t65.5 2t63 -4t33.5 -11.5t10 -18.5t-7.5 -25l-98 -190q-5 -10 -12 -16.5t-19.5 -11t-33 -6t-52.5 -1.5t-50.5 2.5t-27 9t-8.5 16.5t4 24z" />
    <glyph glyph-name="H.c2sc" horiz-adv-x="1180" 
d="M1046 31q0 -10 -6 -17t-21 -11.5t-40.5 -6.5t-62.5 -2q-38 0 -63 2t-40 6.5t-21 11.5t-6 17v408h-393v-408q0 -10 -6 -17t-21 -11.5t-40 -6.5t-62 -2q-38 0 -63 2t-40 6.5t-21 11.5t-6 17v999q0 9 6 16t21 12t40 7.5t63 2.5q37 0 62 -2.5t40 -7.5t21 -12t6 -16v-378h393
v378q0 9 6 16t21 12t40 7.5t63 2.5q37 0 62.5 -2.5t40.5 -7.5t21 -12t6 -16v-999z" />
    <glyph glyph-name="Hcircumflex.c2sc" horiz-adv-x="1180" 
d="M1046 31q0 -10 -6 -17t-21 -11.5t-40.5 -6.5t-62.5 -2q-38 0 -63 2t-40 6.5t-21 11.5t-6 17v408h-393v-408q0 -10 -6 -17t-21 -11.5t-40 -6.5t-62 -2q-38 0 -63 2t-40 6.5t-21 11.5t-6 17v999q0 9 6 16t21 12t40 7.5t63 2.5q37 0 62 -2.5t40 -7.5t21 -12t6 -16v-378h393
v378q0 9 6 16t21 12t40 7.5t63 2.5q37 0 62.5 -2.5t40.5 -7.5t21 -12t6 -16v-999zM591 1491q32 0 53.5 -1.5t36.5 -5.5t25.5 -11t19.5 -18l178 -219q13 -17 17 -28t-4 -17t-29 -9t-58 -3q-36 0 -58.5 2t-36 5.5t-21.5 10t-15 15.5l-110 144l-113 -142q-8 -11 -15.5 -17.5
t-21.5 -10.5t-36.5 -5.5t-57.5 -1.5q-36 0 -57 3t-29 9.5t-4 17.5t17 27l176 219q9 11 20 18t27.5 11t40 5.5t55.5 1.5zM152 1062z" />
    <glyph glyph-name="Hbar.c2sc" horiz-adv-x="1217" 
d="M1130 914q8 0 14.5 -3t11 -12t7 -25.5t2.5 -44.5q0 -26 -2.5 -42.5t-7 -25t-11 -11.5t-14.5 -3h-65v-716q0 -10 -6.5 -17t-21 -11.5t-40 -6.5t-62.5 -2q-39 0 -64 2t-39.5 6.5t-20.5 11.5t-6 17v381h-393v-381q0 -10 -6 -17t-21 -11.5t-40 -6.5t-62 -2q-38 0 -63 2
t-40 6.5t-21.5 11.5t-6.5 17v716h-65q-8 0 -14.5 3t-11 12t-7 25.5t-2.5 43.5t2.5 43t7 25t11 12t14.5 3h65v118q0 9 6.5 15.5t21.5 11t40 7t63 2.5q37 0 62 -2.5t40 -7t21 -11t6 -15.5v-118h393v118q0 9 6 15.5t20.5 11t39.5 7t64 2.5q37 0 62.5 -2.5t40 -7t21 -11
t6.5 -15.5v-118h65zM412 747v-146h393v146h-393z" />
    <glyph glyph-name="I.c2sc" horiz-adv-x="528" 
d="M394 31q0 -10 -6 -17t-21.5 -11.5t-40.5 -6.5t-62 -2q-38 0 -63 2t-40 6.5t-21 11.5t-6 17v1001q0 9 6.5 15.5t21 11t39.5 7t63 2.5q37 0 62 -2.5t40.5 -7t21.5 -11t6 -15.5v-1001z" />
    <glyph glyph-name="Igrave.c2sc" horiz-adv-x="528" 
d="M394 31q0 -10 -6 -17t-21.5 -11.5t-40.5 -6.5t-62 -2q-38 0 -63 2t-40 6.5t-21 11.5t-6 17v1001q0 9 6.5 15.5t21 11t39.5 7t63 2.5q37 0 62 -2.5t40.5 -7t21.5 -11t6 -15.5v-1001zM368 1232q10 -14 12.5 -24t-6 -16.5t-28.5 -9.5t-55 -3q-30 0 -49.5 2t-33.5 6.5
t-23.5 11t-18.5 16.5l-208 215q-12 12 -15 23t7.5 19.5t37.5 13.5t72 5q36 0 59 -1.5t39.5 -6.5t27.5 -13.5t21 -21.5zM-160 1062z" />
    <glyph glyph-name="Iacute.c2sc" horiz-adv-x="528" 
d="M394 31q0 -10 -6 -17t-21.5 -11.5t-40.5 -6.5t-62 -2q-38 0 -63 2t-40 6.5t-21 11.5t-6 17v1001q0 9 6.5 15.5t21 11t39.5 7t63 2.5q37 0 62 -2.5t40.5 -7t21.5 -11t6 -15.5v-1001zM309 1448q9 13 20 21.5t27.5 13.5t40.5 6.5t59 1.5q46 0 72 -5t36.5 -13.5t7.5 -19.5
t-15 -23l-208 -215q-8 -10 -18 -16.5t-23.5 -11t-33.5 -6.5t-50 -2q-35 0 -55.5 3t-28.5 9.5t-6 16.5t12 24zM31 1062z" />
    <glyph glyph-name="Icircumflex.c2sc" horiz-adv-x="528" 
d="M394 31q0 -10 -6 -17t-21.5 -11.5t-40.5 -6.5t-62 -2q-38 0 -63 2t-40 6.5t-21 11.5t-6 17v1001q0 9 6.5 15.5t21 11t39.5 7t63 2.5q37 0 62 -2.5t40.5 -7t21.5 -11t6 -15.5v-1001zM267 1491q32 0 53.5 -1.5t36.5 -5.5t25.5 -11t19.5 -18l178 -219q13 -17 17 -28t-4 -17
t-29 -9t-58 -3q-36 0 -58.5 2t-36 5.5t-21.5 10t-15 15.5l-110 144l-113 -142q-8 -11 -15.5 -17.5t-21.5 -10.5t-36.5 -5.5t-57.5 -1.5q-36 0 -57 3t-29 9.5t-4 17.5t17 27l176 219q9 11 20 18t27.5 11t40 5.5t55.5 1.5zM-172 1062z" />
    <glyph glyph-name="Itilde.c2sc" horiz-adv-x="528" 
d="M394 31q0 -10 -6 -17t-21.5 -11.5t-40.5 -6.5t-62 -2q-38 0 -63 2t-40 6.5t-21 11.5t-6 17v1001q0 9 6.5 15.5t21 11t39.5 7t63 2.5q37 0 62 -2.5t40.5 -7t21.5 -11t6 -15.5v-1001zM469 1437q0 15 17.5 20.5t61.5 5.5q45 0 60 -7.5t15 -29.5q0 -57 -14.5 -102.5
t-42 -76.5t-68 -48t-93.5 -17q-57 0 -96.5 16.5t-70.5 36.5t-56.5 36.5t-55.5 16.5q-34 0 -48.5 -22.5t-14.5 -57.5q0 -16 -18.5 -21t-60.5 -5q-45 0 -60 7.5t-15 30.5q0 58 15 103t43 76.5t68.5 47.5t91.5 16q57 0 96.5 -16t70.5 -36.5t57 -37t55 -16.5q30 0 46.5 20
t16.5 60zM-191 1062z" />
    <glyph glyph-name="Idieresis.c2sc" horiz-adv-x="528" 
d="M394 31q0 -10 -6 -17t-21.5 -11.5t-40.5 -6.5t-62 -2q-38 0 -63 2t-40 6.5t-21 11.5t-6 17v1001q0 9 6.5 15.5t21 11t39.5 7t63 2.5q37 0 62 -2.5t40.5 -7t21.5 -11t6 -15.5v-1001zM188 1325q0 -70 -27 -97.5t-103 -27.5t-102.5 26.5t-26.5 94.5q0 71 27.5 98t102.5 27
q76 0 102.5 -26t26.5 -95zM601 1325q0 -70 -27 -97.5t-103 -27.5q-75 0 -101.5 26.5t-26.5 94.5q0 71 27 98t102 27q77 0 103 -26t26 -95zM-173 1062z" />
    <glyph glyph-name="Imacron.c2sc" horiz-adv-x="528" 
d="M394 31q0 -10 -6 -17t-21.5 -11.5t-40.5 -6.5t-62 -2q-38 0 -63 2t-40 6.5t-21 11.5t-6 17v1001q0 9 6.5 15.5t21 11t39.5 7t63 2.5q37 0 62 -2.5t40.5 -7t21.5 -11t6 -15.5v-1001zM541 1414q11 0 19 -4.5t13 -15.5t7 -29t2 -43q0 -26 -2 -43.5t-7 -28t-13 -15.5t-19 -5
h-550q-12 0 -20.5 5t-13.5 15.5t-7.5 28t-2.5 43.5q0 25 2.5 42.5t7.5 28.5t13.5 16t20.5 5h550zM-155 1062z" />
    <glyph glyph-name="Ibreve.c2sc" horiz-adv-x="528" 
d="M394 31q0 -10 -6 -17t-21.5 -11.5t-40.5 -6.5t-62 -2q-38 0 -63 2t-40 6.5t-21 11.5t-6 17v1001q0 9 6.5 15.5t21 11t39.5 7t63 2.5q37 0 62 -2.5t40.5 -7t21.5 -11t6 -15.5v-1001zM391 1454q3 21 20.5 30t62.5 9q52 0 69.5 -7.5t17.5 -27.5q0 -66 -18.5 -117
t-55.5 -86.5t-92 -54.5t-130 -19q-78 0 -134 19t-92 55t-53 87t-17 115q0 9 4 16t13.5 11.5t25.5 6.5t40 2q26 0 43 -2t26.5 -6.5t14 -12t5.5 -17.5q2 -26 10 -47t23 -36.5t37.5 -24t53.5 -8.5q59 0 90 30t36 85zM-133 1062z" />
    <glyph glyph-name="Idotaccent.c2sc" horiz-adv-x="528" 
d="M394 31q0 -10 -6 -17t-21.5 -11.5t-40.5 -6.5t-62 -2q-38 0 -63 2t-40 6.5t-21 11.5t-6 17v1001q0 9 6.5 15.5t21 11t39.5 7t63 2.5q37 0 62 -2.5t40.5 -7t21.5 -11t6 -15.5v-1001zM403 1325q0 -71 -29.5 -99t-109.5 -28t-109 27t-29 96q0 71 30 99t110 28t108.5 -27
t28.5 -96zM24 1062z" />
    <glyph glyph-name="Iogonek.c2sc" horiz-adv-x="528" 
d="M394 26q0 -11 -4 -19.5t-15 -19.5l-67 -66q-22 -22 -31.5 -39t-9.5 -35q0 -19 14 -30.5t48 -11.5h86q21 0 28.5 -13.5t7.5 -51.5q0 -22 -2 -36t-6.5 -22.5t-12 -13.5t-17.5 -8q-34 -12 -75 -18.5t-93 -6.5q-57 0 -99 12t-70 34.5t-41 54t-13 68.5q0 22 4 41t12.5 37.5
t22 36.5t34.5 38l50 50q-5 4 -8 9t-3 13v1003q0 9 6.5 15.5t21 11t39.5 7t63 2.5q37 0 62 -2.5t40.5 -7t21.5 -11t6 -15.5v-1006z" />
    <glyph glyph-name="IJ.c2sc" horiz-adv-x="1135" 
d="M394 31q0 -10 -6 -17t-21.5 -11.5t-40.5 -6.5t-62 -2q-38 0 -63 2t-40 6.5t-21 11.5t-6 17v1001q0 9 6.5 15.5t21 11t39.5 7t63 2.5q37 0 62 -2.5t40.5 -7t21.5 -11t6 -15.5v-1001zM1002 335q0 -96 -15.5 -157.5t-50.5 -105t-91.5 -67t-140.5 -23.5q-28 0 -55.5 3
t-50.5 8.5t-39 12.5t-22 13.5t-9.5 13t-5.5 16.5t-3 26t-1 39q0 37 1.5 60t5 36t9 17.5t13.5 4.5q9 0 18 -5.5t20.5 -11t27.5 -10.5t39 -5q25 0 42 6t27.5 21.5t15.5 40t5 80.5v684q0 9 6 15.5t21 11t40 7t64 2.5q38 0 63 -2.5t39.5 -7t20.5 -11t6 -15.5v-697z" />
    <glyph glyph-name="J.c2sc" horiz-adv-x="617" 
d="M484 335q0 -96 -15.5 -157.5t-50.5 -105t-91.5 -67t-140.5 -23.5q-28 0 -55.5 3t-50.5 8.5t-39 12.5t-22 13.5t-9.5 13t-5.5 16.5t-3 26t-1 39q0 37 1.5 60t5 36t9 17.5t13.5 4.5q9 0 18 -5.5t20.5 -11t27.5 -10.5t39 -5q25 0 42 6t27.5 21.5t15.5 40t5 80.5v684
q0 9 6 15.5t21 11t40 7t64 2.5q38 0 63 -2.5t39.5 -7t20.5 -11t6 -15.5v-697z" />
    <glyph glyph-name="Jcircumflex.c2sc" horiz-adv-x="617" 
d="M484 335q0 -96 -15.5 -157.5t-50.5 -105t-91.5 -67t-140.5 -23.5q-28 0 -55.5 3t-50.5 8.5t-39 12.5t-22 13.5t-9.5 13t-5.5 16.5t-3 26t-1 39q0 37 1.5 60t5 36t9 17.5t13.5 4.5q9 0 18 -5.5t20.5 -11t27.5 -10.5t39 -5q25 0 42 6t27.5 21.5t15.5 40t5 80.5v684
q0 9 6 15.5t21 11t40 7t64 2.5q38 0 63 -2.5t39.5 -7t20.5 -11t6 -15.5v-697zM344 1491q32 0 53.5 -1.5t36.5 -5.5t25.5 -11t19.5 -18l178 -219q13 -17 17 -28t-4 -17t-29 -9t-58 -3q-36 0 -58.5 2t-36 5.5t-21.5 10t-15 15.5l-110 144l-113 -142q-8 -11 -15.5 -17.5
t-21.5 -10.5t-36.5 -5.5t-57.5 -1.5q-36 0 -57 3t-29 9.5t-4 17.5t17 27l176 219q9 11 20 18t27.5 11t40 5.5t55.5 1.5zM-95 1062z" />
    <glyph glyph-name="K.c2sc" horiz-adv-x="1029" 
d="M988 31q0 -10 -6.5 -17t-22 -11.5t-42.5 -6.5t-67 -2q-41 0 -67 1.5t-42 5.5t-24.5 12t-15.5 21l-308 503v-505q0 -10 -6 -17t-21 -11.5t-40 -7t-62 -2.5q-38 0 -63 2t-40 6.5t-21 11.5t-6 17v1000q0 9 6 16t21 11.5t40 7t63 2.5q37 0 62 -2.5t40 -7t21 -11.5t6 -16v-436
l296 434q7 12 16 19.5t24.5 11.5t39.5 6t62 2q40 0 66 -2.5t41.5 -6.5t22 -11t6.5 -16q0 -8 -2 -16t-6.5 -18.5t-12.5 -24t-21 -31.5l-278 -350l311 -484q8 -15 14 -27t9.5 -21t5 -16t1.5 -13z" />
    <glyph glyph-name="Kcommaaccent.c2sc" horiz-adv-x="1029" 
d="M988 31q0 -10 -6.5 -17t-22 -11.5t-42.5 -6.5t-67 -2q-41 0 -67 1.5t-42 5.5t-24.5 12t-15.5 21l-308 503v-505q0 -10 -6 -17t-21 -11.5t-40 -7t-62 -2.5q-38 0 -63 2t-40 6.5t-21 11.5t-6 17v1000q0 9 6 16t21 11.5t40 7t63 2.5q37 0 62 -2.5t40 -7t21 -11.5t6 -16v-436
l296 434q7 12 16 19.5t24.5 11.5t39.5 6t62 2q40 0 66 -2.5t41.5 -6.5t22 -11t6.5 -16q0 -8 -2 -16t-6.5 -18.5t-12.5 -24t-21 -31.5l-278 -350l311 -484q8 -15 14 -27t9.5 -21t5 -16t1.5 -13zM405 -123q3 11 11 19.5t23.5 13.5t41 7t65.5 2t63 -4t33.5 -11.5t10 -18.5
t-7.5 -25l-98 -190q-5 -10 -12 -16.5t-19.5 -11t-33 -6t-52.5 -1.5t-50.5 2.5t-27 9t-8.5 16.5t4 24z" />
    <glyph glyph-name="L.c2sc" horiz-adv-x="764" 
d="M756 101q0 -55 -9.5 -78t-27.5 -23h-514q-30 0 -50.5 18t-20.5 56v958q0 9 6 15.5t21 11t40 7t63 2.5q37 0 62 -2.5t40.5 -7t21.5 -11t6 -15.5v-828h325q9 0 16 -5t12 -17t7 -32t2 -49z" />
    <glyph glyph-name="Lacute.c2sc" horiz-adv-x="764" 
d="M756 101q0 -55 -9.5 -78t-27.5 -23h-514q-30 0 -50.5 18t-20.5 56v958q0 9 6 15.5t21 11t40 7t63 2.5q37 0 62 -2.5t40.5 -7t21.5 -11t6 -15.5v-828h325q9 0 16 -5t12 -17t7 -32t2 -49zM411 1448q9 13 20 21.5t27.5 13.5t40.5 6.5t59 1.5q46 0 72 -5t36.5 -13.5
t7.5 -19.5t-15 -23l-208 -215q-8 -10 -18 -16.5t-23.5 -11t-33.5 -6.5t-50 -2q-35 0 -55.5 3t-28.5 9.5t-6 16.5t12 24zM133 1062z" />
    <glyph glyph-name="Lcaron.c2sc" horiz-adv-x="781" 
d="M756 101q0 -55 -9.5 -78t-27.5 -23h-514q-30 0 -50.5 18t-20.5 56v958q0 9 6 15.5t21 11t40 7t63 2.5q37 0 62 -2.5t40.5 -7t21.5 -11t6 -15.5v-828h325q9 0 16 -5t12 -17t7 -32t2 -49zM573 1327q3 12 10.5 20.5t21.5 14.5t36 9t55 3q36 0 57.5 -3.5t31.5 -9.5
t10.5 -15.5t-3.5 -21.5l-124 -314q-4 -11 -11 -17.5t-20 -10t-32 -5t-48 -1.5q-23 0 -36.5 2.5t-20 7.5t-7.5 14t2 22zM390 960z" />
    <glyph glyph-name="Lcommaaccent.c2sc" horiz-adv-x="764" 
d="M756 101q0 -55 -9.5 -78t-27.5 -23h-514q-30 0 -50.5 18t-20.5 56v958q0 9 6 15.5t21 11t40 7t63 2.5q37 0 62 -2.5t40.5 -7t21.5 -11t6 -15.5v-828h325q9 0 16 -5t12 -17t7 -32t2 -49zM322 -123q3 11 11 19.5t23.5 13.5t41 7t65.5 2t63 -4t33.5 -11.5t10 -18.5t-7.5 -25
l-98 -190q-5 -10 -12 -16.5t-19.5 -11t-33 -6t-52.5 -1.5t-50.5 2.5t-27 9t-8.5 16.5t4 24z" />
    <glyph glyph-name="Lslash.c2sc" horiz-adv-x="780" 
d="M772 101q0 -56 -9.5 -78.5t-26.5 -22.5h-514q-31 0 -50.5 18t-19.5 56v300l-70 -44q-21 -12 -29.5 7.5t-8.5 76.5q0 27 1 45t5 30.5t11 21t17 14.5l74 46v461q0 9 6 15.5t21 11t39.5 7t62.5 2.5t63 -2.5t39.5 -7t21 -11t6.5 -15.5v-303l144 90q20 12 29 -8t9 -76
q0 -27 -1.5 -45.5t-5.5 -31t-10.5 -21t-16.5 -15.5l-148 -90v-330h325q8 0 15 -5t11.5 -17t7 -31.5t2.5 -47.5z" />
    <glyph glyph-name="Ldot.c2sc" horiz-adv-x="1045" 
d="M756 101q0 -55 -9.5 -78t-27.5 -23h-514q-30 0 -50.5 18t-20.5 56v958q0 9 6 15.5t21 11t40 7t63 2.5q37 0 62 -2.5t40.5 -7t21.5 -11t6 -15.5v-828h325q9 0 16 -5t12 -17t7 -32t2 -49zM964 598q0 -93 -32.5 -125.5t-116.5 -32.5t-116 32t-32 120q0 93 32.5 125.5
t117.5 32.5q83 0 115 -32t32 -120z" />
    <glyph glyph-name="M.c2sc" horiz-adv-x="1608" 
d="M1475 31q0 -10 -5.5 -17t-19 -11.5t-37.5 -6.5t-61 -2q-38 0 -62 2t-38 6.5t-19 11.5t-5 17v817h-2l-301 -822q-4 -17 -32 -24.5t-91 -7.5q-32 0 -54.5 2t-36.5 6t-21.5 10t-10.5 14l-297 822h-2v-817q0 -10 -5.5 -17t-19 -11.5t-37.5 -6.5t-62 -2t-61.5 2t-37 6.5
t-18.5 11.5t-5 17v946q0 41 23 63t61 22h175q45 0 77 -8t55 -25t38.5 -45.5t27.5 -68.5l217 -572h4l223 569q13 42 28.5 71t37 46.5t50.5 25t68 7.5h173q39 0 61 -22t22 -63v-946z" />
    <glyph glyph-name="N.c2sc" horiz-adv-x="1223" 
d="M1089 85q0 -41 -21.5 -63t-59.5 -22h-201q-41 0 -65 19t-42 61l-221 454q-33 70 -65 142.5t-62 137.5h-1q0 -30 1 -65t2 -71t1.5 -71.5t0.5 -65.5v-510q0 -10 -4.5 -17t-16.5 -11.5t-33 -6.5t-55 -2t-56.5 2t-35 6.5t-17 11.5t-4.5 17v946q0 41 23 63t61 22h208
q18 0 33.5 -4.5t28.5 -14t24 -24t20 -34.5l202 -420q37 -79 70.5 -152t65.5 -145h2q-1 35 -2 75t-1.5 81t-1 81t-0.5 76v448q0 9 4.5 16.5t17 12.5t33.5 7.5t55 2.5q35 0 56.5 -2.5t34 -7.5t17 -12.5t4.5 -16.5v-944z" />
    <glyph glyph-name="Nacute.c2sc" horiz-adv-x="1223" 
d="M1089 85q0 -41 -21.5 -63t-59.5 -22h-201q-41 0 -65 19t-42 61l-221 454q-33 70 -65 142.5t-62 137.5h-1q0 -30 1 -65t2 -71t1.5 -71.5t0.5 -65.5v-510q0 -10 -4.5 -17t-16.5 -11.5t-33 -6.5t-55 -2t-56.5 2t-35 6.5t-17 11.5t-4.5 17v946q0 41 23 63t61 22h208
q18 0 33.5 -4.5t28.5 -14t24 -24t20 -34.5l202 -420q37 -79 70.5 -152t65.5 -145h2q-1 35 -2 75t-1.5 81t-1 81t-0.5 76v448q0 9 4.5 16.5t17 12.5t33.5 7.5t55 2.5q35 0 56.5 -2.5t34 -7.5t17 -12.5t4.5 -16.5v-944zM715 1448q9 13 20 21.5t27.5 13.5t40.5 6.5t59 1.5
q46 0 72 -5t36.5 -13.5t7.5 -19.5t-15 -23l-208 -215q-8 -10 -18 -16.5t-23.5 -11t-33.5 -6.5t-50 -2q-35 0 -55.5 3t-28.5 9.5t-6 16.5t12 24zM437 1062z" />
    <glyph glyph-name="Ncaron.c2sc" horiz-adv-x="1223" 
d="M1089 85q0 -41 -21.5 -63t-59.5 -22h-201q-41 0 -65 19t-42 61l-221 454q-33 70 -65 142.5t-62 137.5h-1q0 -30 1 -65t2 -71t1.5 -71.5t0.5 -65.5v-510q0 -10 -4.5 -17t-16.5 -11.5t-33 -6.5t-55 -2t-56.5 2t-35 6.5t-17 11.5t-4.5 17v946q0 41 23 63t61 22h208
q18 0 33.5 -4.5t28.5 -14t24 -24t20 -34.5l202 -420q37 -79 70.5 -152t65.5 -145h2q-1 35 -2 75t-1.5 81t-1 81t-0.5 76v448q0 9 4.5 16.5t17 12.5t33.5 7.5t55 2.5q35 0 56.5 -2.5t34 -7.5t17 -12.5t4.5 -16.5v-944zM618 1179q-32 0 -53.5 1.5t-36.5 6t-25.5 11.5t-20.5 18
l-178 218q-13 17 -17 28.5t4 17.5t29 8.5t58 2.5t59 -1t35.5 -5t21 -10t14.5 -16l112 -144l112 143q8 10 16 17t21.5 10.5t35.5 4.5t58 1q37 0 57.5 -3t28.5 -9t4 -17.5t-17 -27.5l-176 -218q-9 -11 -20 -18t-27.5 -11.5t-39.5 -6t-55 -1.5zM183 1062z" />
    <glyph glyph-name="Ntilde.c2sc" horiz-adv-x="1223" 
d="M1089 85q0 -41 -21.5 -63t-59.5 -22h-201q-41 0 -65 19t-42 61l-221 454q-33 70 -65 142.5t-62 137.5h-1q0 -30 1 -65t2 -71t1.5 -71.5t0.5 -65.5v-510q0 -10 -4.5 -17t-16.5 -11.5t-33 -6.5t-55 -2t-56.5 2t-35 6.5t-17 11.5t-4.5 17v946q0 41 23 63t61 22h208
q18 0 33.5 -4.5t28.5 -14t24 -24t20 -34.5l202 -420q37 -79 70.5 -152t65.5 -145h2q-1 35 -2 75t-1.5 81t-1 81t-0.5 76v448q0 9 4.5 16.5t17 12.5t33.5 7.5t55 2.5q35 0 56.5 -2.5t34 -7.5t17 -12.5t4.5 -16.5v-944zM816 1437q0 15 17.5 20.5t61.5 5.5q45 0 60 -7.5
t15 -29.5q0 -57 -14.5 -102.5t-42 -76.5t-68 -48t-93.5 -17q-57 0 -96.5 16.5t-70.5 36.5t-56.5 36.5t-55.5 16.5q-34 0 -48.5 -22.5t-14.5 -57.5q0 -16 -18.5 -21t-60.5 -5q-45 0 -60 7.5t-15 30.5q0 58 15 103t43 76.5t68.5 47.5t91.5 16q57 0 96.5 -16t70.5 -36.5t57 -37
t55 -16.5q30 0 46.5 20t16.5 60zM156 1062z" />
    <glyph glyph-name="Ncommaaccent.c2sc" horiz-adv-x="1223" 
d="M1089 85q0 -41 -21.5 -63t-59.5 -22h-201q-41 0 -65 19t-42 61l-221 454q-33 70 -65 142.5t-62 137.5h-1q0 -30 1 -65t2 -71t1.5 -71.5t0.5 -65.5v-510q0 -10 -4.5 -17t-16.5 -11.5t-33 -6.5t-55 -2t-56.5 2t-35 6.5t-17 11.5t-4.5 17v946q0 41 23 63t61 22h208
q18 0 33.5 -4.5t28.5 -14t24 -24t20 -34.5l202 -420q37 -79 70.5 -152t65.5 -145h2q-1 35 -2 75t-1.5 81t-1 81t-0.5 76v448q0 9 4.5 16.5t17 12.5t33.5 7.5t55 2.5q35 0 56.5 -2.5t34 -7.5t17 -12.5t4.5 -16.5v-944zM482 -123q3 11 11 19.5t23.5 13.5t41 7t65.5 2t63 -4
t33.5 -11.5t10 -18.5t-7.5 -25l-98 -190q-5 -10 -12 -16.5t-19.5 -11t-33 -6t-52.5 -1.5t-50.5 2.5t-27 9t-8.5 16.5t4 24z" />
    <glyph glyph-name="Eng.c2sc" horiz-adv-x="1175" 
d="M1041 1q0 -96 -19.5 -165t-58 -113.5t-95.5 -66t-132 -21.5q-33 0 -61.5 3t-48.5 9.5t-27 11.5t-11 16t-6.5 30t-2.5 50q0 26 2 44t5 28.5t8.5 15t12.5 4.5t14.5 -2t17 -4.5t22.5 -4.5t32 -2q26 0 45 8t32 24.5t19 41.5t6 59v33l-428 758h-2v-727q0 -10 -5 -17t-18 -11.5
t-34.5 -6.5t-55.5 -2q-35 0 -57.5 2t-36.5 6.5t-19 11.5t-5 17v946q0 41 23 63t61 22h148q25 0 44.5 -5t34.5 -14.5t26.5 -23t21.5 -31.5l315 -558h2v600q0 9 4.5 16.5t17.5 12t35.5 7t57.5 2.5q37 0 59.5 -2.5t35 -7t17 -12t4.5 -16.5v-1029z" />
    <glyph glyph-name="O.c2sc" horiz-adv-x="1242" 
d="M1157 545q0 -134 -35.5 -239.5t-104.5 -178.5t-170.5 -111t-232.5 -38q-129 0 -227.5 30t-165.5 95.5t-101.5 170t-34.5 251.5q0 129 36.5 233t105.5 176.5t170.5 111t232.5 38.5q124 0 221.5 -31t165.5 -96.5t104 -167.5t36 -244zM887 533q0 80 -13.5 144t-44.5 109.5
t-81.5 69.5t-123.5 24q-76 0 -127 -27.5t-82.5 -75t-45 -109.5t-13.5 -131q0 -85 13.5 -151t44.5 -111.5t81 -69t123 -23.5q74 0 125.5 27.5t83.5 75t46 111.5t14 137z" />
    <glyph glyph-name="Ograve.c2sc" horiz-adv-x="1242" 
d="M1157 545q0 -134 -35.5 -239.5t-104.5 -178.5t-170.5 -111t-232.5 -38q-129 0 -227.5 30t-165.5 95.5t-101.5 170t-34.5 251.5q0 129 36.5 233t105.5 176.5t170.5 111t232.5 38.5q124 0 221.5 -31t165.5 -96.5t104 -167.5t36 -244zM887 533q0 80 -13.5 144t-44.5 109.5
t-81.5 69.5t-123.5 24q-76 0 -127 -27.5t-82.5 -75t-45 -109.5t-13.5 -131q0 -85 13.5 -151t44.5 -111.5t81 -69t123 -23.5q74 0 125.5 27.5t83.5 75t46 111.5t14 137zM709 1232q10 -14 12.5 -24t-6 -16.5t-28.5 -9.5t-55 -3q-30 0 -49.5 2t-33.5 6.5t-23.5 11t-18.5 16.5
l-208 215q-12 12 -15 23t7.5 19.5t37.5 13.5t72 5q36 0 59 -1.5t39.5 -6.5t27.5 -13.5t21 -21.5zM181 1062z" />
    <glyph glyph-name="Oacute.c2sc" horiz-adv-x="1242" 
d="M1157 545q0 -134 -35.5 -239.5t-104.5 -178.5t-170.5 -111t-232.5 -38q-129 0 -227.5 30t-165.5 95.5t-101.5 170t-34.5 251.5q0 129 36.5 233t105.5 176.5t170.5 111t232.5 38.5q124 0 221.5 -31t165.5 -96.5t104 -167.5t36 -244zM887 533q0 80 -13.5 144t-44.5 109.5
t-81.5 69.5t-123.5 24q-76 0 -127 -27.5t-82.5 -75t-45 -109.5t-13.5 -131q0 -85 13.5 -151t44.5 -111.5t81 -69t123 -23.5q74 0 125.5 27.5t83.5 75t46 111.5t14 137zM688 1448q9 13 20 21.5t27.5 13.5t40.5 6.5t59 1.5q46 0 72 -5t36.5 -13.5t7.5 -19.5t-15 -23l-208 -215
q-8 -10 -18 -16.5t-23.5 -11t-33.5 -6.5t-50 -2q-35 0 -55.5 3t-28.5 9.5t-6 16.5t12 24zM410 1062z" />
    <glyph glyph-name="Ocircumflex.c2sc" horiz-adv-x="1242" 
d="M1157 545q0 -134 -35.5 -239.5t-104.5 -178.5t-170.5 -111t-232.5 -38q-129 0 -227.5 30t-165.5 95.5t-101.5 170t-34.5 251.5q0 129 36.5 233t105.5 176.5t170.5 111t232.5 38.5q124 0 221.5 -31t165.5 -96.5t104 -167.5t36 -244zM887 533q0 80 -13.5 144t-44.5 109.5
t-81.5 69.5t-123.5 24q-76 0 -127 -27.5t-82.5 -75t-45 -109.5t-13.5 -131q0 -85 13.5 -151t44.5 -111.5t81 -69t123 -23.5q74 0 125.5 27.5t83.5 75t46 111.5t14 137zM624 1491q32 0 53.5 -1.5t36.5 -5.5t25.5 -11t19.5 -18l178 -219q13 -17 17 -28t-4 -17t-29 -9t-58 -3
q-36 0 -58.5 2t-36 5.5t-21.5 10t-15 15.5l-110 144l-113 -142q-8 -11 -15.5 -17.5t-21.5 -10.5t-36.5 -5.5t-57.5 -1.5q-36 0 -57 3t-29 9.5t-4 17.5t17 27l176 219q9 11 20 18t27.5 11t40 5.5t55.5 1.5zM185 1062z" />
    <glyph glyph-name="Otilde.c2sc" horiz-adv-x="1242" 
d="M1157 545q0 -134 -35.5 -239.5t-104.5 -178.5t-170.5 -111t-232.5 -38q-129 0 -227.5 30t-165.5 95.5t-101.5 170t-34.5 251.5q0 129 36.5 233t105.5 176.5t170.5 111t232.5 38.5q124 0 221.5 -31t165.5 -96.5t104 -167.5t36 -244zM887 533q0 80 -13.5 144t-44.5 109.5
t-81.5 69.5t-123.5 24q-76 0 -127 -27.5t-82.5 -75t-45 -109.5t-13.5 -131q0 -85 13.5 -151t44.5 -111.5t81 -69t123 -23.5q74 0 125.5 27.5t83.5 75t46 111.5t14 137zM825 1437q0 15 17.5 20.5t61.5 5.5q45 0 60 -7.5t15 -29.5q0 -57 -14.5 -102.5t-42 -76.5t-68 -48
t-93.5 -17q-57 0 -96.5 16.5t-70.5 36.5t-56.5 36.5t-55.5 16.5q-34 0 -48.5 -22.5t-14.5 -57.5q0 -16 -18.5 -21t-60.5 -5q-45 0 -60 7.5t-15 30.5q0 58 15 103t43 76.5t68.5 47.5t91.5 16q57 0 96.5 -16t70.5 -36.5t57 -37t55 -16.5q30 0 46.5 20t16.5 60zM165 1062z" />
    <glyph glyph-name="Odieresis.c2sc" horiz-adv-x="1242" 
d="M1157 545q0 -134 -35.5 -239.5t-104.5 -178.5t-170.5 -111t-232.5 -38q-129 0 -227.5 30t-165.5 95.5t-101.5 170t-34.5 251.5q0 129 36.5 233t105.5 176.5t170.5 111t232.5 38.5q124 0 221.5 -31t165.5 -96.5t104 -167.5t36 -244zM887 533q0 80 -13.5 144t-44.5 109.5
t-81.5 69.5t-123.5 24q-76 0 -127 -27.5t-82.5 -75t-45 -109.5t-13.5 -131q0 -85 13.5 -151t44.5 -111.5t81 -69t123 -23.5q74 0 125.5 27.5t83.5 75t46 111.5t14 137zM542 1325q0 -70 -27 -97.5t-103 -27.5t-102.5 26.5t-26.5 94.5q0 71 27.5 98t102.5 27q76 0 102.5 -26
t26.5 -95zM955 1325q0 -70 -27 -97.5t-103 -27.5q-75 0 -101.5 26.5t-26.5 94.5q0 71 27 98t102 27q77 0 103 -26t26 -95zM181 1062z" />
    <glyph glyph-name="Omacron.c2sc" horiz-adv-x="1242" 
d="M1157 545q0 -134 -35.5 -239.5t-104.5 -178.5t-170.5 -111t-232.5 -38q-129 0 -227.5 30t-165.5 95.5t-101.5 170t-34.5 251.5q0 129 36.5 233t105.5 176.5t170.5 111t232.5 38.5q124 0 221.5 -31t165.5 -96.5t104 -167.5t36 -244zM887 533q0 80 -13.5 144t-44.5 109.5
t-81.5 69.5t-123.5 24q-76 0 -127 -27.5t-82.5 -75t-45 -109.5t-13.5 -131q0 -85 13.5 -151t44.5 -111.5t81 -69t123 -23.5q74 0 125.5 27.5t83.5 75t46 111.5t14 137zM900 1414q11 0 19 -4.5t13 -15.5t7 -29t2 -43q0 -26 -2 -43.5t-7 -28t-13 -15.5t-19 -5h-550
q-12 0 -20.5 5t-13.5 15.5t-7.5 28t-2.5 43.5q0 25 2.5 42.5t7.5 28.5t13.5 16t20.5 5h550zM204 1062z" />
    <glyph glyph-name="Obreve.c2sc" horiz-adv-x="1242" 
d="M1157 545q0 -134 -35.5 -239.5t-104.5 -178.5t-170.5 -111t-232.5 -38q-129 0 -227.5 30t-165.5 95.5t-101.5 170t-34.5 251.5q0 129 36.5 233t105.5 176.5t170.5 111t232.5 38.5q124 0 221.5 -31t165.5 -96.5t104 -167.5t36 -244zM887 533q0 80 -13.5 144t-44.5 109.5
t-81.5 69.5t-123.5 24q-76 0 -127 -27.5t-82.5 -75t-45 -109.5t-13.5 -131q0 -85 13.5 -151t44.5 -111.5t81 -69t123 -23.5q74 0 125.5 27.5t83.5 75t46 111.5t14 137zM748 1454q3 21 20.5 30t62.5 9q52 0 69.5 -7.5t17.5 -27.5q0 -66 -18.5 -117t-55.5 -86.5t-92 -54.5
t-130 -19q-78 0 -134 19t-92 55t-53 87t-17 115q0 9 4 16t13.5 11.5t25.5 6.5t40 2q26 0 43 -2t26.5 -6.5t14 -12t5.5 -17.5q2 -26 10 -47t23 -36.5t37.5 -24t53.5 -8.5q59 0 90 30t36 85zM224 1062z" />
    <glyph glyph-name="Ohungarumlaut.c2sc" horiz-adv-x="1242" 
d="M1157 545q0 -134 -35.5 -239.5t-104.5 -178.5t-170.5 -111t-232.5 -38q-129 0 -227.5 30t-165.5 95.5t-101.5 170t-34.5 251.5q0 129 36.5 233t105.5 176.5t170.5 111t232.5 38.5q124 0 221.5 -31t165.5 -96.5t104 -167.5t36 -244zM887 533q0 80 -13.5 144t-44.5 109.5
t-81.5 69.5t-123.5 24q-76 0 -127 -27.5t-82.5 -75t-45 -109.5t-13.5 -131q0 -85 13.5 -151t44.5 -111.5t81 -69t123 -23.5q74 0 125.5 27.5t83.5 75t46 111.5t14 137zM516 1196q-8 -8 -16 -13t-20 -7.5t-29 -3t-41 -0.5q-29 0 -47.5 2t-27.5 7.5t-9 13t7 19.5l158 237
q7 10 17 17.5t25.5 12.5t37.5 7t55 2q50 0 79.5 -3.5t41.5 -11t9 -18t-17 -24.5zM918 1198q-9 -9 -18 -14.5t-21.5 -8t-30.5 -3t-44 -0.5q-31 0 -51 2t-30.5 7t-11.5 12t8 17l181 245q7 9 16 16t25.5 11t42.5 6t65 2q45 0 71 -4t37 -11.5t8 -18t-16 -23.5zM223 1062z" />
    <glyph glyph-name="Oslash.c2sc" horiz-adv-x="1252" 
d="M1174 545q0 -135 -36 -240.5t-105.5 -178t-173 -110t-237.5 -37.5q-49 0 -86.5 4t-63.5 11l-75 -159q-7 -14 -30 -20.5t-73 -6.5q-32 0 -52.5 3.5t-31 10t-12 15.5t4.5 21l92 191q-53 30 -92.5 75t-65.5 105t-39 134t-13 161q0 126 35 229.5t104.5 176.5t173.5 113
t243 40q38 0 73 -3t68 -11l67 139q8 19 32 26.5t75 7.5q34 0 54.5 -3t30 -9.5t10 -16t-5.5 -22.5l-86 -179q54 -31 94.5 -76.5t67.5 -104t40 -130.5t13 -156zM919 535q0 35 -3.5 69.5t-11.5 67t-22 61.5t-34 53l-290 -606q13 -5 31.5 -7.5t41.5 -2.5q78 0 133 26.5t89 74.5
t50 115t16 149zM699 884q-17 5 -36 7t-38 2q-75 0 -129 -26.5t-88.5 -74.5t-51 -113.5t-16.5 -144.5q0 -39 3.5 -75t11.5 -68.5t21 -61.5t32 -52z" />
    <glyph glyph-name="Oslashacute.c2sc" horiz-adv-x="1252" 
d="M1174 545q0 -135 -36 -240.5t-105.5 -178t-173 -110t-237.5 -37.5q-49 0 -86.5 4t-63.5 11l-75 -159q-7 -14 -30 -20.5t-73 -6.5q-32 0 -52.5 3.5t-31 10t-12 15.5t4.5 21l92 191q-53 30 -92.5 75t-65.5 105t-39 134t-13 161q0 126 35 229.5t104.5 176.5t173.5 113
t243 40q38 0 73 -3t68 -11l67 139q8 19 32 26.5t75 7.5q34 0 54.5 -3t30 -9.5t10 -16t-5.5 -22.5l-86 -179q54 -31 94.5 -76.5t67.5 -104t40 -130.5t13 -156zM919 535q0 35 -3.5 69.5t-11.5 67t-22 61.5t-34 53l-290 -606q13 -5 31.5 -7.5t41.5 -2.5q78 0 133 26.5t89 74.5
t50 115t16 149zM699 884q-17 5 -36 7t-38 2q-75 0 -129 -26.5t-88.5 -74.5t-51 -113.5t-16.5 -144.5q0 -39 3.5 -75t11.5 -68.5t21 -61.5t32 -52zM575 1448q9 13 20 21.5t27.5 13.5t40.5 6.5t59 1.5q46 0 72 -5t36.5 -13.5t7.5 -19.5t-15 -23l-208 -215q-8 -10 -18 -16.5
t-23.5 -11t-33.5 -6.5t-50 -2q-35 0 -55.5 3t-28.5 9.5t-6 16.5t12 24zM297 1062z" />
    <glyph glyph-name="OE.c2sc" horiz-adv-x="1582" 
d="M1484 97q0 -27 -2 -45.5t-6 -30t-10.5 -16.5t-15.5 -5h-554q-19 0 -32 6.5t-21 21.5q-45 -25 -105 -37.5t-128 -12.5q-129 0 -227 30t-164 95.5t-100 169.5t-34 251q0 129 36 233t105 176.5t170.5 111.5t232.5 39q61 0 118 -11.5t95 -30.5q9 11 21.5 15.5t28.5 4.5h555
q9 0 15.5 -4.5t10.5 -15.5t6 -30t2 -47q0 -27 -2 -45t-6 -29.5t-10.5 -16.5t-15.5 -5h-383v-228h325q8 0 15 -4.5t11 -15.5t6 -30t2 -46q0 -26 -2 -44.5t-6 -29.5t-11 -15.5t-15 -4.5h-325v-258h386q9 0 15.5 -4.5t10.5 -16t6 -30t2 -45.5zM806 826q-43 28 -87 41t-96 13
q-76 0 -127 -27.5t-82 -75t-44.5 -110t-13.5 -131.5q0 -85 13 -151t43.5 -111.5t79.5 -68.5t122 -23q54 0 101.5 15t90.5 44v585z" />
    <glyph glyph-name="P.c2sc" horiz-adv-x="1021" 
d="M951 734q0 -95 -29.5 -166.5t-86 -119t-139 -71.5t-197.5 -24h-106v-322q0 -10 -6 -17t-21 -11.5t-40 -6.5t-62 -2q-38 0 -63.5 2t-40 6.5t-20.5 11.5t-6 17v946q0 41 23 63t61 22h300q40 0 78 -3t74 -10q66 -11 118 -37t88 -65.5t55.5 -92.5t19.5 -120zM680 715
q0 55 -24.5 94t-70.5 54q-19 5 -40 7.5t-46 2.5h-106v-331h117q51 0 81 13t50 36t29.5 54.5t9.5 69.5z" />
    <glyph glyph-name="Thorn.c2sc" horiz-adv-x="1021" 
d="M951 567q0 -94 -29.5 -165t-86 -119t-139 -72t-197.5 -24h-106v-156q0 -9 -6 -16t-21 -11.5t-40 -7t-62 -2.5q-38 0 -63.5 2.5t-40 7t-20.5 11.5t-6 16v1000q0 9 6 16t20.5 11.5t40 7t63.5 2.5q37 0 62 -2.5t40 -7t21 -11.5t6 -16v-134h125q40 0 77.5 -2.5t73.5 -10.5
q66 -12 118 -38t88.5 -65.5t56 -93t19.5 -120.5zM680 549q0 56 -24.5 94.5t-70.5 53.5q-19 6 -40 8t-46 2h-106v-330h117q51 0 81 13t50 35.5t29.5 54t9.5 69.5z" />
    <glyph glyph-name="Q.c2sc" horiz-adv-x="1246" 
d="M1250 -104q0 -30 -3.5 -50.5t-11.5 -35t-20 -14.5q-27 0 -93 21.5t-121 54.5t-97 70.5t-74 78.5q-42 -18 -97.5 -30.5t-119.5 -12.5q-129 0 -227.5 30t-165 96t-101 170.5t-34.5 251.5q0 129 36.5 232.5t105.5 176t170.5 111t232.5 38.5q124 0 221.5 -31t165.5 -96.5
t104 -168t36 -244.5q0 -73 -11 -137t-31 -118t-49 -98t-64 -78q48 -42 101 -68t115 -43q16 -6 24 -31.5t8 -74.5zM887 532q0 80 -13.5 144t-44.5 110t-81.5 70t-123.5 24q-76 0 -127 -27.5t-82.5 -75t-45 -109t-13.5 -130.5q0 -85 13.5 -151t44 -112t80.5 -69.5t123 -23.5
q74 0 125.5 27.5t83.5 75t46.5 111t14.5 136.5z" />
    <glyph glyph-name="R.c2sc" horiz-adv-x="1061" 
d="M999 19q0 -7 -6 -12t-22 -7.5t-45 -4t-74 -1.5q-43 0 -69 2t-42 7t-23 13t-10 20l-77 227q-14 40 -28.5 68.5t-33 47.5t-42 28t-60.5 9h-74v-385q0 -10 -6 -17t-21 -11.5t-40 -6.5t-62 -2q-38 0 -63.5 2t-40 6.5t-20.5 11.5t-6 17v957q0 38 20.5 56t50.5 18h340
q101 0 172.5 -17t123.5 -53t81 -91.5t29 -130.5q0 -54 -13 -99t-39.5 -80.5t-65.5 -62t-91 -42.5q25 -10 46 -25t39.5 -37.5t35.5 -53t33 -69.5l85 -217q10 -28 14 -42.5t4 -22.5zM680 742q0 28 -8.5 52t-27.5 41.5t-49 27.5t-84 10h-118v-274h110q51 0 82.5 10t52.5 28.5
t31.5 44.5t10.5 60z" />
    <glyph glyph-name="Racute.c2sc" horiz-adv-x="1061" 
d="M999 19q0 -7 -6 -12t-22 -7.5t-45 -4t-74 -1.5q-43 0 -69 2t-42 7t-23 13t-10 20l-77 227q-14 40 -28.5 68.5t-33 47.5t-42 28t-60.5 9h-74v-385q0 -10 -6 -17t-21 -11.5t-40 -6.5t-62 -2q-38 0 -63.5 2t-40 6.5t-20.5 11.5t-6 17v957q0 38 20.5 56t50.5 18h340
q101 0 172.5 -17t123.5 -53t81 -91.5t29 -130.5q0 -54 -13 -99t-39.5 -80.5t-65.5 -62t-91 -42.5q25 -10 46 -25t39.5 -37.5t35.5 -53t33 -69.5l85 -217q10 -28 14 -42.5t4 -22.5zM680 742q0 28 -8.5 52t-27.5 41.5t-49 27.5t-84 10h-118v-274h110q51 0 82.5 10t52.5 28.5
t31.5 44.5t10.5 60zM590 1448q9 13 20 21.5t27.5 13.5t40.5 6.5t59 1.5q46 0 72 -5t36.5 -13.5t7.5 -19.5t-15 -23l-208 -215q-8 -10 -18 -16.5t-23.5 -11t-33.5 -6.5t-50 -2q-35 0 -55.5 3t-28.5 9.5t-6 16.5t12 24zM312 1062z" />
    <glyph glyph-name="Rcaron.c2sc" horiz-adv-x="1061" 
d="M999 19q0 -7 -6 -12t-22 -7.5t-45 -4t-74 -1.5q-43 0 -69 2t-42 7t-23 13t-10 20l-77 227q-14 40 -28.5 68.5t-33 47.5t-42 28t-60.5 9h-74v-385q0 -10 -6 -17t-21 -11.5t-40 -6.5t-62 -2q-38 0 -63.5 2t-40 6.5t-20.5 11.5t-6 17v957q0 38 20.5 56t50.5 18h340
q101 0 172.5 -17t123.5 -53t81 -91.5t29 -130.5q0 -54 -13 -99t-39.5 -80.5t-65.5 -62t-91 -42.5q25 -10 46 -25t39.5 -37.5t35.5 -53t33 -69.5l85 -217q10 -28 14 -42.5t4 -22.5zM680 742q0 28 -8.5 52t-27.5 41.5t-49 27.5t-84 10h-118v-274h110q51 0 82.5 10t52.5 28.5
t31.5 44.5t10.5 60zM525 1179q-32 0 -53.5 1.5t-36.5 6t-25.5 11.5t-20.5 18l-178 218q-13 17 -17 28.5t4 17.5t29 8.5t58 2.5t59 -1t35.5 -5t21 -10t14.5 -16l112 -144l112 143q8 10 16 17t21.5 10.5t35.5 4.5t58 1q37 0 57.5 -3t28.5 -9t4 -17.5t-17 -27.5l-176 -218
q-9 -11 -20 -18t-27.5 -11.5t-39.5 -6t-55 -1.5zM90 1062z" />
    <glyph glyph-name="Rcommaaccent.c2sc" horiz-adv-x="1061" 
d="M999 19q0 -7 -6 -12t-22 -7.5t-45 -4t-74 -1.5q-43 0 -69 2t-42 7t-23 13t-10 20l-77 227q-14 40 -28.5 68.5t-33 47.5t-42 28t-60.5 9h-74v-385q0 -10 -6 -17t-21 -11.5t-40 -6.5t-62 -2q-38 0 -63.5 2t-40 6.5t-20.5 11.5t-6 17v957q0 38 20.5 56t50.5 18h340
q101 0 172.5 -17t123.5 -53t81 -91.5t29 -130.5q0 -54 -13 -99t-39.5 -80.5t-65.5 -62t-91 -42.5q25 -10 46 -25t39.5 -37.5t35.5 -53t33 -69.5l85 -217q10 -28 14 -42.5t4 -22.5zM680 742q0 28 -8.5 52t-27.5 41.5t-49 27.5t-84 10h-118v-274h110q51 0 82.5 10t52.5 28.5
t31.5 44.5t10.5 60zM427 -123q3 11 11 19.5t23.5 13.5t41 7t65.5 2t63 -4t33.5 -11.5t10 -18.5t-7.5 -25l-98 -190q-5 -10 -12 -16.5t-19.5 -11t-33 -6t-52.5 -1.5t-50.5 2.5t-27 9t-8.5 16.5t4 24z" />
    <glyph glyph-name="S.c2sc" horiz-adv-x="879" 
d="M810 315q0 -78 -31 -140.5t-86.5 -106t-132.5 -67t-170 -23.5q-53 0 -102 8t-89 20.5t-68.5 27t-38 23.5t-13.5 16.5t-7 18t-4 26t-1 37.5q0 31 1.5 51t5.5 32t10 17t16 5q12 0 35.5 -14t59 -31t83.5 -30.5t110 -13.5q37 0 66 8t50 23.5t32.5 37.5t11.5 50q0 34 -20 58.5
t-53 44t-75 36t-86 36.5t-86 45.5t-74.5 61t-52.5 85t-20 115.5q0 74 29.5 132t81 98t121.5 61t150 21q46 0 89 -7t78 -17.5t60 -23t33 -20.5t11.5 -15t6 -18.5t4 -28.5t1.5 -42q0 -26 -1.5 -42.5t-5 -26.5t-9 -14t-14.5 -4q-11 0 -32 11.5t-51.5 24.5t-70.5 24.5t-88 11.5
q-33 0 -58.5 -8t-43.5 -22t-27 -33.5t-9 -41.5q0 -34 20.5 -58t54 -43t76 -36t87 -36.5t87 -44.5t75.5 -60.5t53.5 -84t20.5 -114.5z" />
    <glyph glyph-name="Sacute.c2sc" horiz-adv-x="879" 
d="M810 315q0 -78 -31 -140.5t-86.5 -106t-132.5 -67t-170 -23.5q-53 0 -102 8t-89 20.5t-68.5 27t-38 23.5t-13.5 16.5t-7 18t-4 26t-1 37.5q0 31 1.5 51t5.5 32t10 17t16 5q12 0 35.5 -14t59 -31t83.5 -30.5t110 -13.5q37 0 66 8t50 23.5t32.5 37.5t11.5 50q0 34 -20 58.5
t-53 44t-75 36t-86 36.5t-86 45.5t-74.5 61t-52.5 85t-20 115.5q0 74 29.5 132t81 98t121.5 61t150 21q46 0 89 -7t78 -17.5t60 -23t33 -20.5t11.5 -15t6 -18.5t4 -28.5t1.5 -42q0 -26 -1.5 -42.5t-5 -26.5t-9 -14t-14.5 -4q-11 0 -32 11.5t-51.5 24.5t-70.5 24.5t-88 11.5
q-33 0 -58.5 -8t-43.5 -22t-27 -33.5t-9 -41.5q0 -34 20.5 -58t54 -43t76 -36t87 -36.5t87 -44.5t75.5 -60.5t53.5 -84t20.5 -114.5zM502 1448q9 13 20 21.5t27.5 13.5t40.5 6.5t59 1.5q46 0 72 -5t36.5 -13.5t7.5 -19.5t-15 -23l-208 -215q-8 -10 -18 -16.5t-23.5 -11
t-33.5 -6.5t-50 -2q-35 0 -55.5 3t-28.5 9.5t-6 16.5t12 24zM224 1062z" />
    <glyph glyph-name="Scircumflex.c2sc" horiz-adv-x="879" 
d="M810 315q0 -78 -31 -140.5t-86.5 -106t-132.5 -67t-170 -23.5q-53 0 -102 8t-89 20.5t-68.5 27t-38 23.5t-13.5 16.5t-7 18t-4 26t-1 37.5q0 31 1.5 51t5.5 32t10 17t16 5q12 0 35.5 -14t59 -31t83.5 -30.5t110 -13.5q37 0 66 8t50 23.5t32.5 37.5t11.5 50q0 34 -20 58.5
t-53 44t-75 36t-86 36.5t-86 45.5t-74.5 61t-52.5 85t-20 115.5q0 74 29.5 132t81 98t121.5 61t150 21q46 0 89 -7t78 -17.5t60 -23t33 -20.5t11.5 -15t6 -18.5t4 -28.5t1.5 -42q0 -26 -1.5 -42.5t-5 -26.5t-9 -14t-14.5 -4q-11 0 -32 11.5t-51.5 24.5t-70.5 24.5t-88 11.5
q-33 0 -58.5 -8t-43.5 -22t-27 -33.5t-9 -41.5q0 -34 20.5 -58t54 -43t76 -36t87 -36.5t87 -44.5t75.5 -60.5t53.5 -84t20.5 -114.5zM440 1491q32 0 53.5 -1.5t36.5 -5.5t25.5 -11t19.5 -18l178 -219q13 -17 17 -28t-4 -17t-29 -9t-58 -3q-36 0 -58.5 2t-36 5.5t-21.5 10
t-15 15.5l-110 144l-113 -142q-8 -11 -15.5 -17.5t-21.5 -10.5t-36.5 -5.5t-57.5 -1.5q-36 0 -57 3t-29 9.5t-4 17.5t17 27l176 219q9 11 20 18t27.5 11t40 5.5t55.5 1.5zM1 1062z" />
    <glyph glyph-name="Scaron.c2sc" horiz-adv-x="879" 
d="M810 315q0 -78 -31 -140.5t-86.5 -106t-132.5 -67t-170 -23.5q-53 0 -102 8t-89 20.5t-68.5 27t-38 23.5t-13.5 16.5t-7 18t-4 26t-1 37.5q0 31 1.5 51t5.5 32t10 17t16 5q12 0 35.5 -14t59 -31t83.5 -30.5t110 -13.5q37 0 66 8t50 23.5t32.5 37.5t11.5 50q0 34 -20 58.5
t-53 44t-75 36t-86 36.5t-86 45.5t-74.5 61t-52.5 85t-20 115.5q0 74 29.5 132t81 98t121.5 61t150 21q46 0 89 -7t78 -17.5t60 -23t33 -20.5t11.5 -15t6 -18.5t4 -28.5t1.5 -42q0 -26 -1.5 -42.5t-5 -26.5t-9 -14t-14.5 -4q-11 0 -32 11.5t-51.5 24.5t-70.5 24.5t-88 11.5
q-33 0 -58.5 -8t-43.5 -22t-27 -33.5t-9 -41.5q0 -34 20.5 -58t54 -43t76 -36t87 -36.5t87 -44.5t75.5 -60.5t53.5 -84t20.5 -114.5zM441 1179q-32 0 -53.5 1.5t-36.5 6t-25.5 11.5t-20.5 18l-178 218q-13 17 -17 28.5t4 17.5t29 8.5t58 2.5t59 -1t35.5 -5t21 -10t14.5 -16
l112 -144l112 143q8 10 16 17t21.5 10.5t35.5 4.5t58 1q37 0 57.5 -3t28.5 -9t4 -17.5t-17 -27.5l-176 -218q-9 -11 -20 -18t-27.5 -11.5t-39.5 -6t-55 -1.5zM6 1062z" />
    <glyph glyph-name="Scedilla.c2sc" horiz-adv-x="879" 
d="M810 315q0 -79 -33 -144.5t-98.5 -112t-157.5 -66.5l26 -58q18 -39 26 -68t8 -56q0 -46 -16.5 -79t-45.5 -54t-68 -31.5t-84 -10.5q-44 0 -81.5 6t-62 13t-35 12t-15 13t-6.5 20.5t-2 34.5q0 40 7.5 55.5t27.5 15.5h116q29 0 43 12.5t14 34.5q0 12 -4.5 27t-11.5 31
l-32 71q-62 6 -111 20.5t-80.5 30.5t-41 25t-13.5 16.5t-7 18t-4 26t-1 37.5q0 31 1.5 51t5.5 32t10 17t16 5q12 0 35.5 -14t59 -31t83.5 -30.5t110 -13.5q37 0 66 8t50 23.5t32.5 37.5t11.5 50q0 34 -20 58.5t-53 44t-75 36t-86 36.5t-86 45.5t-74.5 61t-52.5 85t-20 115.5
q0 74 29.5 132t81 98t121.5 61t150 21q46 0 89 -7t78 -17.5t60 -23t33 -20.5t11.5 -15t6 -18.5t4 -28.5t1.5 -42q0 -26 -1.5 -42.5t-5 -26.5t-9 -14t-14.5 -4q-11 0 -32 11.5t-51.5 24.5t-70.5 24.5t-88 11.5q-33 0 -58.5 -8t-43.5 -22t-27 -33.5t-9 -41.5q0 -34 20.5 -58
t54 -43t76 -36t87 -36.5t87 -44.5t75.5 -60.5t53.5 -84t20.5 -114.5z" />
    </font>
</defs>
</svg>
